<?xml version="1.0" standalone="no"?>
<!DOCTYPE svg PUBLIC "-//W3C//DTD SVG 1.1//EN" "http://www.w3.org/Graphics/SVG/1.1/DTD/svg11.dtd" >
<svg xmlns="http://www.w3.org/2000/svg" xmlns:xlink="http://www.w3.org/1999/xlink" version="1.1">
<metadata>
Created by FontForge 20200427 at Fri Jul  1 22:06:00 2011
 By www
Copyright (c) 2009 Linotype GmbH, www.linotype.com. All rights reserved. This font software may not be reproduced, modified, disclosed or transferred without the express written approval of Linotype GmbH. Syntax is a trademark of Linotype Corp. registered in the U.S. Patent and Trademark Office and may be registered in certain other jurisdictions in the name of Linotype Corp. or its licensee Linotype GmbH. This typeface is original artwork of Hans Eduard Meier. The design may be protected in certain jurisdictions.
</metadata>
<defs>
<font id="SyntaxNextLTW01" horiz-adv-x="584" >
  <font-face 
    font-family="SyntaxNextLTW01"
    font-weight="400"
    font-stretch="normal"
    units-per-em="1000"
    panose-1="2 11 6 4 2 2 2 2 2 4"
    ascent="749"
    descent="-251"
    x-height="498"
    cap-height="692"
    bbox="-62 -264 1180 932"
    underline-thickness="50"
    underline-position="-150"
    unicode-range="U+000D-2122"
  />
<missing-glyph horiz-adv-x="0" 
 />
    <glyph glyph-name=".notdef" horiz-adv-x="0" 
 />
    <glyph glyph-name="glyph1" horiz-adv-x="0" 
 />
    <glyph glyph-name="uni000D" unicode="&#xd;" horiz-adv-x="200" 
 />
    <glyph glyph-name="space" unicode=" " horiz-adv-x="292" 
 />
    <glyph glyph-name="exclam" unicode="!" horiz-adv-x="332" 
d="M211 382q-1 -26 -1.5 -58.5t-2.5 -61.5q-2 -34 -4 -69h-71q-2 36 -4 70q-2 29 -3 61.5t0 56.5l3 311h86zM119 0v99h92v-99h-92z" />
    <glyph glyph-name="quotedbl" unicode="&#x22;" horiz-adv-x="455" 
d="M345 449h-72l1 243h72zM182 449h-72l1 243h72z" />
    <glyph glyph-name="numbersign" unicode="#" 
d="M440 425l-21 -152h94v-54h-101l-31 -219h-77l31 219h-124l-31 -219h-77l31 219h-92v54h100l21 152h-92v54h99l30 213h77l-30 -213h124l30 213h77l-30 -213h94v-54h-102zM239 425l-21 -152h124l22 152h-125z" />
    <glyph glyph-name="dollar" unicode="$" 
d="M465 593q-11 11 -35.5 23t-64.5 16l-39 -240q33 -15 65 -31.5t57.5 -40t41.5 -56t16 -78.5t-18 -82.5t-49 -61.5t-73 -38.5t-91 -13.5h-13l-12 -79l-44 1l13 81q-61 6 -95.5 22t-53.5 29l47 61q10 -7 37.5 -22t75.5 -21l41 256q-32 15 -64 31.5t-57.5 40t-41.5 56.5
t-16 80q0 44 19 77t50 55t71 33t83 11h18l11 71l43 -1l-12 -73q42 -5 77.5 -17.5t58.5 -29.5zM322 634q-27 0 -52.5 -6.5t-45 -19.5t-31 -32.5t-11.5 -46.5q0 -23 8 -40.5t22 -31.5t33 -25.5t41 -21.5zM416 174q0 24 -8 42.5t-22 33.5t-33 26.5t-41 22.5l-39 -239
q24 1 49.5 7.5t46 20t34 35t13.5 51.5z" />
    <glyph glyph-name="percent" unicode="%" horiz-adv-x="877" 
d="M817 207q0 -35 -8.5 -73t-27 -69.5t-49 -52t-74.5 -20.5q-47 0 -78 19.5t-49 50.5t-25 69.5t-7 75.5q0 35 8 72.5t26.5 69t49 52t75.5 20.5q47 0 77.5 -19.5t48.5 -50.5t25.5 -69t7.5 -75zM238 -28l-46 18l445 729l48 -19zM378 486q0 -35 -8.5 -73t-27 -69.5t-49 -52
t-74.5 -20.5q-47 0 -78 19.5t-49 50.5t-25 69.5t-7 75.5q0 35 8 72.5t26.5 69t49 52t75.5 20.5q47 0 77.5 -19.5t48.5 -50.5t25.5 -69t7.5 -75zM751 207q0 22 -3 51t-13 54.5t-28.5 43t-48.5 17.5t-48.5 -17.5t-28 -43t-13 -54.5t-3.5 -51q0 -23 3.5 -52t13 -55.5t28 -44.5
t48.5 -18t48.5 18t28.5 44.5t13 55.5t3 52zM312 486q0 22 -3 51t-13 54.5t-28.5 43t-48.5 17.5t-48.5 -17.5t-28 -43t-13 -54.5t-3.5 -51q0 -23 3.5 -52t13 -55.5t28 -44.5t48.5 -18t48.5 18t28.5 44.5t13 55.5t3 52z" />
    <glyph glyph-name="ampersand" unicode="&#x26;" horiz-adv-x="706" 
d="M630 -13l-92 100q-43 -51 -102 -74.5t-125 -23.5q-51 0 -95 12t-76.5 37.5t-51 65.5t-18.5 95q0 42 13 75t35 59.5t51.5 48.5t61.5 43q-27 29 -51 63t-24 76q0 37 13 63.5t35.5 43t53 24.5t64.5 8q31 0 58 -6.5t46.5 -21.5t31 -38.5t11.5 -57.5q0 -29 -11.5 -52.5
t-30 -42t-41 -34t-43.5 -29.5l188 -207q15 44 18.5 85.5t2.5 87.5h73q1 -7 1 -13v-13q0 -24 -2 -51.5t-7.5 -54.5t-14 -52.5t-21.5 -46.5l115 -123zM394 571q0 35 -20.5 54t-55.5 19q-34 0 -56 -21t-22 -55q0 -31 19.5 -56t40.5 -45q14 8 30.5 18t30.5 23t23.5 28.5
t9.5 34.5zM273 376q-26 -20 -47 -37t-35.5 -37t-22 -45t-7.5 -60q0 -36 13.5 -62.5t36.5 -44.5t53 -27t63 -9q51 0 92.5 22.5t74.5 58.5z" />
    <glyph glyph-name="quotesingle" unicode="'" horiz-adv-x="292" 
d="M182 449h-72l1 243h72z" />
    <glyph glyph-name="parenleft" unicode="(" horiz-adv-x="325" 
d="M319 705q-39 -39 -69.5 -87.5t-52 -102.5t-32.5 -111t-11 -112q0 -53 12.5 -104.5t34 -99.5t50.5 -93t62 -84l-57 -35q-39 44 -72 92.5t-57.5 100.5t-38.5 108.5t-14 116.5q0 68 13 128t37 114t59 104t79 99l57 -34v0z" />
    <glyph glyph-name="parenright" unicode=")" horiz-adv-x="325" 
d="M251 321q0 -68 -13 -128t-37 -114t-59 -104t-79 -99l-57 34q39 39 69.5 87.5t52 102.5t32.5 111t11 112q0 53 -12.5 104.5t-34 99.5t-50.5 93t-62 84l57 35q39 -44 72 -92.5t57.5 -100.5t38.5 -108.5t14 -116.5z" />
    <glyph glyph-name="asterisk" unicode="*" horiz-adv-x="423" 
d="M252 514l77 -115l-53 -28l-64 122l-67 -122l-53 25l82 118l-134 -7v53l133 -5l-77 115l53 28l64 -122l67 122l53 -25l-82 -118l134 7v-53z" />
    <glyph glyph-name="plus" unicode="+" 
d="M333 217v-217h-81v217h-197v73h197v208h81v-208h197v-73h-197z" />
    <glyph glyph-name="comma" unicode="," horiz-adv-x="292" 
d="M145 -143h-50l2 242h100z" />
    <glyph glyph-name="hyphen" unicode="-" horiz-adv-x="390" 
d="M53 217v73h284v-73h-284z" />
    <glyph glyph-name="period" unicode="." horiz-adv-x="292" 
d="M112 0v99h96v-99h-96z" />
    <glyph glyph-name="slash" unicode="/" horiz-adv-x="382" 
d="M73 -26l-71 20l309 724l71 -20z" />
    <glyph glyph-name="zero" unicode="0" 
d="M543 348q0 -57 -13.5 -120t-43 -116.5t-77.5 -88t-117 -34.5q-73 0 -121 33.5t-77 85.5t-41 116t-12 124q0 57 13.5 119.5t43 115t77.5 86.5t117 34q73 0 121 -33t77 -84.5t41 -114.5t12 -123zM456 348q0 40 -5.5 90.5t-23 95.5t-50 75.5t-85.5 30.5q-35 0 -61 -14.5
t-44 -38t-29.5 -54t-18 -63t-9 -64.5t-2.5 -58q0 -39 6 -90.5t23.5 -97t49.5 -77t85 -31.5t85.5 31.5t50 77t23 96.5t5.5 91z" />
    <glyph glyph-name="one" unicode="1" 
d="M388 0h-85l4 542q0 11 0.5 24.5t1.5 25.5q1 13 2 27q-8 -9 -17 -19q-8 -8 -17 -17.5t-18 -16.5l-132 -103l-47 53l247 188l67 -16z" />
    <glyph glyph-name="two" unicode="2" 
d="M58 0l-22 60q21 17 48 39t57 47.5t60.5 53t59.5 56.5q30 30 56.5 60.5t45.5 61t30 62.5t11 65q0 63 -38 96t-104 33q-44 0 -82.5 -12.5t-70.5 -35.5l-39 54q42 29 94.5 46t105.5 17q48 0 89 -10.5t71 -34t47 -61t17 -90.5q0 -37 -12 -72.5t-31.5 -68.5t-44.5 -63.5
t-52 -58.5t-55.5 -55t-55.5 -50.5t-51 -42.5t-42 -30q10 1 23 2q11 1 26 1.5t34 0.5h263v-70h-438z" />
    <glyph glyph-name="three" unicode="3" 
d="M483 199q0 -50 -20.5 -89t-54.5 -66t-78 -41t-91 -14q-54 0 -97.5 7.5t-89.5 28.5l29 59q35 -17 73.5 -23t79.5 -6q28 0 56 9.5t50.5 27.5t36.5 43t14 56q0 47 -19 72.5t-49 37.5t-68 14.5t-77 2.5h-47v65h51q31 0 67.5 5t67 20t51 42t20.5 71q0 32 -11.5 54t-31.5 36
t-46 20t-55 6q-80 0 -144 -36l-29 58q43 23 92.5 33.5t91.5 10.5q43 0 83.5 -8t71.5 -27.5t49.5 -54t18.5 -86.5q0 -34 -11.5 -61.5t-30.5 -48t-44 -35t-52 -23.5q40 -6 67.5 -22t44.5 -38t24 -48.5t7 -51.5z" />
    <glyph glyph-name="four" unicode="4" 
d="M435 185l-1 -185h-83l2 185h-300l-27 62l333 454l79 -15l-2 -432h125v-69h-126zM366 620q-6 -14 -16.5 -35t-20.5 -36l-172 -251q-6 -9 -13 -17.5t-13 -15.5q-7 -8 -13 -14q8 0 17 1q8 1 18 1.5t21 0.5h179l5 285q1 23 3.5 45t4.5 36z" />
    <glyph glyph-name="five" unicode="5" 
d="M518 255q0 -61 -24.5 -110.5t-65 -84t-94.5 -53t-112 -18.5q-37 0 -80.5 7.5t-77.5 22.5l28 64q28 -14 62 -19t65 -5q42 0 79.5 12.5t66 37t45 59.5t16.5 80q0 67 -39.5 107t-105.5 40q-48 0 -88 -18t-60 -50l-67 15l73 350h368v-72h-297l-30 -140q-3 -16 -7.5 -27.5
t-6.5 -16.5q27 14 63.5 21.5t71.5 7.5q49 0 89 -14.5t68.5 -42t44 -66.5t15.5 -87z" />
    <glyph glyph-name="six" unicode="6" 
d="M528 638h-28q-73 0 -135.5 -19.5t-110 -59t-77.5 -100.5t-36 -144q10 18 29 36.5t44 34.5t55.5 26t64.5 10q40 0 76.5 -11.5t64 -35.5t43.5 -61t16 -88q0 -52 -19.5 -95.5t-53 -75t-77.5 -49t-93 -17.5q-61 0 -105.5 22.5t-74 60.5t-43.5 89.5t-14 109.5q0 102 33 182
t92 135.5t142 85t183 29.5h37zM448 212q0 64 -31.5 103t-95.5 39t-108.5 -39.5t-67.5 -97.5q5 -32 16 -61t29 -51t44.5 -35t62.5 -13q31 0 59 12.5t48 34t32 49.5t12 59z" />
    <glyph glyph-name="seven" unicode="7" 
d="M180 -14l-76 25l291 544q17 30 31 51q7 11 14 20q-5 -1 -28.5 -3.5t-49.5 -2.5h-292v72h430l32 -54z" />
    <glyph glyph-name="eight" unicode="8" 
d="M527 178q0 -51 -20.5 -87t-53.5 -58.5t-76 -33t-88 -10.5q-40 0 -81.5 9t-75 30t-54.5 55.5t-21 85.5q0 70 43.5 114t112.5 67q-75 26 -110.5 70.5t-35.5 101.5q0 45 20.5 79t53.5 56.5t74 34t81 11.5q37 0 77 -7t73 -25.5t54 -51.5t21 -84q0 -34 -12 -63t-32 -52
t-47.5 -39.5t-58.5 -26.5q73 -23 114.5 -68t41.5 -108zM439 526q0 30 -12 52t-32 36.5t-45 21.5t-51 7q-27 0 -53.5 -8t-47 -23.5t-33.5 -37.5t-13 -50q0 -29 14 -50.5t36 -38t47.5 -28.5t48.5 -22q26 10 51.5 21.5t45.5 28t32 38.5t12 53zM441 172q0 34 -13 57t-34 39
t-48.5 28t-57.5 23q-30 -12 -57 -24.5t-48 -29t-33 -39t-12 -54.5q0 -31 13.5 -54t35 -38t48.5 -22t55 -7q27 0 54 7.5t48.5 22.5t35 37.5t13.5 53.5z" />
    <glyph glyph-name="nine" unicode="9" 
d="M535 421q0 -102 -33 -182t-92 -135.5t-142 -85t-183 -29.5h-37l13 65h28q78 0 141 21.5t109.5 63t74.5 102.5t34 141q-10 -17 -28.5 -36t-44 -35t-56 -26.5t-63.5 -10.5q-40 0 -76 11.5t-63.5 35.5t-43.5 60.5t-16 87.5t19 94t52 74t76.5 48.5t91.5 17.5q62 0 107 -22.5
t74.5 -60.5t43.5 -89.5t14 -109.5zM444 479q-5 31 -16 59.5t-29.5 50t-44.5 34t-62 12.5q-31 0 -58 -12t-47 -32.5t-31.5 -48t-11.5 -58.5q0 -63 31 -102.5t94 -39.5q31 0 58 10.5t49 29.5t39 43.5t29 53.5z" />
    <glyph glyph-name="colon" unicode=":" horiz-adv-x="292" 
d="M99 399v99h97v-99h-97zM96 0v99h96v-99h-96z" />
    <glyph glyph-name="semicolon" unicode=";" horiz-adv-x="292" 
d="M100 398v100h97v-100h-97zM145 -144h-49l1 243h100z" />
    <glyph glyph-name="less" unicode="&#x3c;" 
d="M483 -10l-428 226v62l434 231l32 -64l-317 -167q-11 -6 -22.5 -11t-21.5 -10q-11 -5 -23 -9q12 -4 23 -8q10 -4 21 -8.5t22 -9.5l319 -163z" />
    <glyph glyph-name="equal" unicode="=" 
d="M57 315v73h471v-73h-471zM56 121v73h472v-73h-472z" />
    <glyph glyph-name="greater" unicode="&#x3e;" 
d="M95 -6l-32 64l317 167q11 5 22.5 10.5t21.5 10.5q11 5 23 9q-12 4 -23 8q-10 4 -21.5 8.5t-21.5 9.5l-319 163l39 69l428 -226v-62z" />
    <glyph glyph-name="question" unicode="?" horiz-adv-x="448" 
d="M422 528q0 -43 -13.5 -73t-34.5 -52t-44.5 -39.5t-44.5 -35.5t-34.5 -39.5t-13.5 -52.5v-57h-86v52q0 40 13.5 67.5t34.5 48t44.5 37.5t44.5 36.5t34.5 44.5t13.5 62q0 28 -11 49t-29.5 35t-42.5 20.5t-49 6.5q-43 0 -83 -15.5t-72 -44.5l-41 49q92 76 203 76q41 0 79 -8
t67.5 -28t47 -54t17.5 -85zM145 0v99h96v-99h-96z" />
    <glyph glyph-name="at" unicode="@" horiz-adv-x="1097" 
d="M1007 316q0 -75 -23.5 -137t-63 -106.5t-90.5 -69t-106 -24.5q-35 0 -58.5 13.5t-23.5 49.5v26q-29 -35 -63 -57t-82 -22q-66 0 -104 39t-38 106q0 53 28.5 85t71.5 50t92 25.5t90 12.5q-1 0 -0.5 10t0.5 22q0 14 1 31q1 35 -16 54.5t-52 19.5q-41 0 -76.5 -18.5
t-66.5 -44.5l-34 49q42 35 91 57t112 22q60 0 92.5 -32.5t31.5 -91.5l-5 -267q0 -13 1 -26t5.5 -24t13 -18t21.5 -7q34 0 65 22.5t55 60t38 86t14 99.5q0 84 -28.5 146t-76.5 103.5t-110.5 62t-131.5 20.5q-92 0 -167.5 -28.5t-129.5 -79.5t-83.5 -121.5t-29.5 -154.5
q0 -94 25 -169t73 -128t118 -81.5t161 -28.5q22 0 48.5 4t52.5 11t50.5 17t43.5 22l30 -51q-24 -13 -54.5 -24.5t-63 -20.5t-64.5 -14t-58 -5q-102 0 -184 32t-139.5 91.5t-88.5 145t-31 193.5q0 96 37.5 178t104.5 143t159.5 95.5t201.5 34.5q81 0 156 -24.5t132.5 -73.5
t91.5 -121.5t34 -168.5zM637 253q-31 -3 -66 -7.5t-64 -16.5t-48.5 -34t-19.5 -60q0 -42 21 -64.5t62 -22.5q38 0 65 22.5t48 49.5z" />
    <glyph glyph-name="A" unicode="A" horiz-adv-x="687" 
d="M580 -14l-94 244h-285l-97 -244l-82 25l290 681h82l271 -679zM379 502q-5 11 -11 29.5t-11 35.5q-6 20 -12 41q-6 -19 -11 -37q-5 -16 -11 -34t-12 -34l-81 -201h227z" />
    <glyph glyph-name="B" unicode="B" horiz-adv-x="607" 
d="M533 192q0 -53 -22 -90.5t-56.5 -61.5t-77.5 -35t-85 -11q-16 0 -39.5 0.5t-49 1.5t-50 2t-41.5 2l6 692q20 1 44 1.5t47.5 1.5t45.5 1.5t37 0.5q30 0 69.5 -3.5t74 -20.5t58.5 -51.5t24 -97.5q0 -62 -35 -101.5t-92 -55.5q18 -3 42 -11.5t46.5 -28t38 -52t15.5 -83.5z
M428 519q0 36 -12.5 58t-33.5 34.5t-49 16.5t-59 4l-69 -3l-2 -235h65q35 0 64.5 6.5t50.5 21.5t33 39t12 58zM442 200q0 40 -13.5 65.5t-36 39.5t-52.5 19t-63 5h-75l-1 -267q29 -1 50.5 -1h38.5q67 0 109.5 34t42.5 105z" />
    <glyph glyph-name="C" unicode="C" horiz-adv-x="626" 
d="M568 603q-20 9 -36.5 15t-33.5 9.5t-36 4.5t-43 1q-61 0 -108.5 -23.5t-80.5 -63t-50.5 -92.5t-17.5 -112q0 -62 14.5 -113.5t44.5 -89t75 -58.5t107 -21q50 0 88.5 13.5t71.5 29.5l31 -62q-43 -23 -96.5 -37.5t-104.5 -14.5q-72 0 -131 24t-102 69t-66.5 109.5
t-23.5 144.5q0 78 26 145t72.5 116.5t111.5 77.5t142 28q29 0 51 -1t42 -5t41 -10.5t48 -17.5z" />
    <glyph glyph-name="D" unicode="D" horiz-adv-x="760" 
d="M690 377q0 -89 -30 -159.5t-83 -120t-125.5 -76t-158.5 -26.5q-17 0 -40.5 0.5t-49 1t-49.5 1.5t-42 2l6 692q49 2 102.5 5t99.5 3q82 0 150 -18t117 -56.5t76 -100t27 -148.5zM598 372q0 72 -21.5 121t-60.5 79t-94.5 43t-124.5 13q-13 0 -29 -0.5t-30 -1.5
q-17 -1 -33 -2l-4 -555q18 -1 45 -1.5t44 -0.5q70 0 126.5 19.5t97 58t62.5 95.5t22 132z" />
    <glyph glyph-name="E" unicode="E" horiz-adv-x="553" 
d="M112 0l6 692h370v-73h-283l-2 -232h275v-73h-276l-1 -240h290v-74h-379z" />
    <glyph glyph-name="F" unicode="F" horiz-adv-x="526" 
d="M205 619l-2 -235h275v-73h-276l-2 -311h-88l6 692h370v-73h-283z" />
    <glyph glyph-name="G" unicode="G" horiz-adv-x="716" 
d="M641 39q-47 -20 -110 -35t-125 -15q-72 0 -133.5 24t-106.5 69t-70.5 109t-25.5 144q0 78 26 145t72.5 116.5t111.5 78t142 28.5q29 0 51 -1t42 -5t41 -10.5t48 -17.5l-36 -66q-20 9 -36.5 15t-33.5 9.5t-36 4.5t-43 1q-61 0 -108.5 -23.5t-80.5 -63.5t-50.5 -93
t-17.5 -112q0 -62 16.5 -113.5t49 -89t79.5 -58t109 -20.5q25 0 42.5 1t32.5 4t29.5 7.5t33.5 11.5l1 270h89z" />
    <glyph glyph-name="H" unicode="H" horiz-adv-x="729" 
d="M611 0h-88l3 313h-324l-2 -313h-88l6 692h88l-3 -305h323l3 305h88z" />
    <glyph glyph-name="I" unicode="I" horiz-adv-x="318" 
d="M200 0h-88l6 692h88z" />
    <glyph glyph-name="J" unicode="J" horiz-adv-x="355" 
d="M249 208q0 -61 -18 -103.5t-50.5 -68.5t-79 -37t-103.5 -10v70q45 -1 75.5 7.5t50 27t28.5 49t9 73.5l4 476h88z" />
    <glyph glyph-name="K" unicode="K" horiz-adv-x="660" 
d="M553 -17l-338 369l343 355l64 -50l-294 -299l298 -323zM200 0h-88l6 692h88z" />
    <glyph glyph-name="L" unicode="L" horiz-adv-x="515" 
d="M112 0l6 692h88l-5 -619h286v-73h-375z" />
    <glyph glyph-name="M" unicode="M" horiz-adv-x="979" 
d="M853 -10l-116 485q-5 20 -9.5 44t-8.5 45q-4 25 -9 50l-10 -45q-5 -20 -11 -45t-14 -51q-41 -133 -73 -237q-14 -44 -27 -86.5t-23 -75.5t-16 -53.5l-6 -20.5h-88q-11 36 -22 76q-10 34 -22 77t-25 89q-30 106 -68 241q-8 26 -13.5 50t-9.5 42q-4 21 -8 39q-4 -22 -8 -46
q-4 -20 -9 -44.5t-11 -47.5l-129 -485l-81 12l193 689h96l136 -486q8 -29 13.5 -52.5t8.5 -40.5q4 -20 6 -36q2 15 6 34q4 16 9.5 38.5t14.5 50.5l151 492h96l171 -688z" />
    <glyph glyph-name="N" unicode="N" horiz-adv-x="769" 
d="M652 11l-94 -23l-298 476q-14 21 -25.5 43.5t-21.5 41.5q-11 22 -21 43q0 -24 1 -45q1 -19 1.5 -38t0.5 -32l-2 -477h-81l6 680l93 23l299 -475q13 -21 25.5 -44t21.5 -42q11 -22 20 -43q-1 32 -2 60q-1 24 -1 48v37l2 448h81z" />
    <glyph glyph-name="O" unicode="O" horiz-adv-x="805" 
d="M735 345q0 -78 -26.5 -143t-72 -112.5t-106.5 -74t-130 -26.5q-72 0 -132.5 25.5t-104.5 72t-68.5 112.5t-24.5 146q0 78 27.5 143.5t74 113.5t108 74.5t129.5 26.5q72 0 132 -25.5t103 -72.5t67 -113t24 -147zM643 343q0 60 -16 113t-46 92t-74 62t-101 23
q-51 0 -95.5 -20.5t-77.5 -58t-52 -90t-19 -117.5q0 -62 16.5 -114.5t47.5 -91t75 -60.5t99 -22q54 0 99 22.5t77 61t49.5 90t17.5 110.5z" />
    <glyph glyph-name="P" unicode="P" horiz-adv-x="587" 
d="M549 502q0 -64 -22.5 -105.5t-58 -65.5t-80 -33.5t-88.5 -9.5h-98l-2 -288h-88l6 692q18 1 45.5 2t57.5 2t57.5 1.5t45.5 0.5t42 -1t49 -7t49 -18t43 -34t30.5 -55t11.5 -81zM459 500q0 45 -14.5 71t-36.5 40t-49.5 18t-52.5 4q-19 0 -37 -0.5t-32 -0.5h-32l-2 -279h88
q31 0 61 5.5t54 21.5t38.5 44.5t14.5 75.5z" />
    <glyph glyph-name="Q" unicode="Q" horiz-adv-x="805" 
d="M735 345q0 -102 -44.5 -182t-116.5 -125l149 -90l-65 -58l-184 108q-19 -5 -36.5 -7t-37.5 -2q-72 0 -132.5 25.5t-104.5 72t-68.5 112.5t-24.5 146q0 78 27.5 143.5t74 113.5t108 74.5t129.5 26.5q72 0 132 -25.5t103 -72.5t67 -113t24 -147zM643 343q0 60 -16 112.5
t-46 91.5t-74 61.5t-101 22.5q-51 0 -95 -20t-77 -57t-52 -89.5t-19 -117.5q0 -62 16.5 -114.5t47 -90.5t74.5 -60t99 -22q54 0 99 22t77 60.5t49.5 90t17.5 110.5z" />
    <glyph glyph-name="R" unicode="R" horiz-adv-x="629" 
d="M523 -12l-226 348l15 34q33 4 60 16.5t45.5 31t29 42.5t10.5 52q0 37 -12 60.5t-32 37t-47.5 18t-57.5 4.5q-10 0 -27 -0.5t-34 -0.5q-20 -1 -42 -1l-5 -630h-88l6 692q45 1 84 2q33 1 64.5 2t44.5 1q32 0 73 -4t77.5 -21.5t61.5 -53.5t25 -99q0 -43 -14 -74t-35.5 -53
t-47 -36.5t-48.5 -23.5l202 -307z" />
    <glyph glyph-name="S" unicode="S" horiz-adv-x="512" 
d="M417 597q-6 4 -16 10.5t-26.5 12.5t-40 10.5t-54.5 4.5q-26 0 -49.5 -6.5t-41.5 -20t-28.5 -33t-10.5 -46.5q0 -40 22.5 -65t56.5 -44t73.5 -36.5t73.5 -42t56.5 -61.5t22.5 -94q0 -46 -17 -82.5t-46.5 -62t-70 -39t-86.5 -13.5q-42 0 -73.5 5.5t-55 14t-39.5 17.5
t-27 17l45 61q6 -4 17 -11.5t28.5 -15t41.5 -13t56 -5.5q23 0 47 6.5t44 20t33 35.5t13 53q0 42 -22.5 68.5t-56.5 46t-73 37t-73 42.5t-56.5 62t-22.5 96q0 44 18 77t47.5 55.5t67.5 33.5t79 11t71 -4.5t51.5 -11.5t37 -15.5t27.5 -16.5z" />
    <glyph glyph-name="T" unicode="T" horiz-adv-x="548" 
d="M321 619l-5 -619h-88l5 619h-219v73h524v-73h-217z" />
    <glyph glyph-name="U" unicode="U" horiz-adv-x="726" 
d="M621 274q-1 -135 -66.5 -210t-204.5 -75q-135 0 -192.5 66.5t-55.5 197.5l4 439h88l-4 -451q-1 -90 39 -136t133 -46q51 0 84.5 15t54 42.5t29.5 65.5t9 84l3 426h82z" />
    <glyph glyph-name="V" unicode="V" horiz-adv-x="672" 
d="M370 0h-82l-272 680l86 27l201 -516q13 -32 21 -61t11 -40q4 17 13 45t20 55l209 516l83 -24z" />
    <glyph glyph-name="W" unicode="W" horiz-adv-x="1019" 
d="M777 0h-96l-139 469q-8 25 -14 49.5t-11 44.5q-5 23 -10 44q-5 -22 -10 -45q-5 -20 -11 -44.5t-14 -47.5q-43 -132 -76 -235q-14 -44 -28 -86.5t-24.5 -75.5t-17 -53l-6.5 -20h-95l-205 681l86 22l138 -476q8 -26 13 -50.5t10 -44.5q4 -23 9 -44q5 22 11 46q5 20 12 45
t15 49l151 464h96l139 -468q6 -22 12.5 -46t11.5 -44q6 -24 11 -46q4 22 9 45l11 44t14 47l152 476l82 -17z" />
    <glyph glyph-name="X" unicode="X" horiz-adv-x="642" 
d="M539 -15l-165 235q-14 19 -24 34.5t-16 26.5q-8 12 -12 22q-5 -9 -13 -20q-7 -10 -17.5 -25.5t-25.5 -36.5l-171 -236l-71 41l245 329l-223 310l80 41l149 -215q12 -18 21 -32t16 -24q7 -11 13 -21q6 12 15 25q8 11 17.5 25.5t21.5 31.5l153 210l70 -40l-228 -306
l244 -337z" />
    <glyph glyph-name="Y" unicode="Y" horiz-adv-x="612" 
d="M348 323l-3 -323h-88l3 316l-254 353l80 39l167 -237q13 -18 22.5 -34t17.5 -27q8 -13 15 -24q8 14 18 29q8 13 19.5 29t23.5 33l169 231l72 -39z" />
    <glyph glyph-name="Z" unicode="Z" horiz-adv-x="556" 
d="M205 156q-9 -14 -20.5 -28.5t-21.5 -26.5q-11 -14 -23 -28h46q19 0 37.5 0.5t29.5 0.5h263v-74h-461l-25 47l326 494q11 17 22 31.5t19 25.5q10 13 19 24q-19 -1 -37 -2q-17 -1 -36 -1h-37h-252v73h449l25 -48z" />
    <glyph glyph-name="bracketleft" unicode="[" horiz-adv-x="325" 
d="M188 668l-6 -718h131v-60h-211l6 838h210v-60h-130z" />
    <glyph glyph-name="backslash" unicode="\" horiz-adv-x="384" 
d="M311 -26l-309 724l71 20l309 -724z" />
    <glyph glyph-name="bracketright" unicode="]" horiz-adv-x="325" 
d="M216 -110h-209v60h130l6 718h-131v60h211z" />
    <glyph glyph-name="asciicircum" unicode="^" 
d="M454 277l-134 267q-5 10 -10 21.5t-9 21.5q-4 11 -9 23q-5 -12 -10 -23q-5 -10 -10.5 -21.5t-10.5 -22.5l-140 -266l-67 24l209 391h62l206 -387z" />
    <glyph glyph-name="underscore" unicode="_" horiz-adv-x="500" 
d="M0 -125v50h500v-50h-500z" />
    <glyph glyph-name="grave" unicode="`" horiz-adv-x="267" 
d="M144 577l-134 145l80 39l103 -163z" />
    <glyph glyph-name="a" unicode="a" horiz-adv-x="501" 
d="M499 25q-23 -15 -49 -25.5t-47 -10.5q-35 0 -54.5 16t-19.5 47v16q-29 -35 -63 -57t-82 -22q-66 0 -104 39t-38 106q0 53 29 85.5t72.5 50.5t93 25.5t90.5 11.5l2 63q1 35 -18 54.5t-54 19.5q-41 0 -76.5 -18.5t-66.5 -44.5l-34 49q46 34 93 56.5t110 22.5q60 0 93 -32.5
t31 -91.5l-7 -267v-21t3.5 -22.5t10.5 -18t20 -7.5q12 0 22 5t20 12zM326 253q-31 -2 -66.5 -6.5t-66 -16.5t-50.5 -34.5t-20 -60.5q0 -42 22.5 -64.5t63.5 -22.5q18 0 34 6.5t30 16.5t26 23t23 26z" />
    <glyph glyph-name="b" unicode="b" horiz-adv-x="585" 
d="M529 267q0 -51 -14.5 -100.5t-43.5 -89t-72.5 -64t-102.5 -24.5q-47 0 -75.5 11t-54.5 36l-2 -36h-76l6 751h83l-2 -243q0 -13 -1.5 -36t-3.5 -36q29 34 71 53.5t87 19.5q56 0 94.5 -20t62 -53t34 -77t10.5 -92zM442 265q0 34 -7 66.5t-22.5 58t-41 41t-61.5 15.5
q-45 0 -80 -27t-56 -64l-2 -239q21 -33 51.5 -49.5t66.5 -16.5q43 0 72 22t47 54t25.5 69.5t7.5 69.5z" />
    <glyph glyph-name="c" unicode="c" horiz-adv-x="471" 
d="M410 409q-26 21 -56 30t-60 9q-39 0 -67.5 -19t-47 -49t-27.5 -68t-9 -76q0 -35 7.5 -68t25 -58.5t44.5 -41.5t66 -16q35 0 61.5 14t51.5 40l47 -42q-29 -31 -70.5 -53t-102.5 -22q-68 0 -110.5 25t-66 63t-32 82.5t-8.5 83.5q0 51 16.5 98.5t47.5 85t74 60t96 22.5
q39 0 78 -8t84 -44z" />
    <glyph glyph-name="d" unicode="d" horiz-adv-x="590" 
d="M496 0h-79v31.5t2 35.5q-29 -34 -70.5 -56t-91.5 -22q-56 0 -94.5 20t-62 53t-34 77t-10.5 92q0 51 14.5 100.5t43.5 89t72.5 64t102.5 24.5q47 0 75.5 -11t54.5 -36q0 6 -1 24t-1 40l2 225h83zM416 384q-21 33 -53 48.5t-68 15.5q-43 0 -72 -22t-47 -54t-25.5 -70
t-7.5 -69q0 -34 7 -66.5t22.5 -58.5t41 -42t61.5 -16q45 0 81.5 29t57.5 66z" />
    <glyph glyph-name="e" unicode="e" horiz-adv-x="527" 
d="M138 250q-1 -40 6 -76t24 -63t45 -43t69 -16q42 0 72 17.5t59 46.5l44 -43q-39 -39 -83 -61.5t-101 -22.5q-61 0 -102.5 20.5t-67 55.5t-36.5 82t-11 101q0 49 16 95.5t46 83.5t72 59.5t95 22.5q55 0 92 -19t59 -50.5t31 -72t9 -82.5v-35h-338zM399 309q1 28 -4.5 54
t-19.5 45.5t-37 31.5t-55 12t-56.5 -13t-41.5 -33t-27.5 -46t-15.5 -51h257z" />
    <glyph glyph-name="f" unicode="f" horiz-adv-x="305" 
d="M339 702h-33q-36 0 -58 -13t-34 -35.5t-15.5 -51.5t-3.5 -61v-43h119v-68h-120l-3 -430h-83l3 430h-89v68h90v53q0 46 10 85t32.5 67t59.5 43.5t91 15.5l38 -1z" />
    <glyph glyph-name="g" unicode="g" horiz-adv-x="531" 
d="M437 440q-9 0 -16.5 1t-10.5 1q13 -17 21.5 -41t8.5 -61q0 -38 -15 -69t-40 -53.5t-58 -34.5t-70 -12q-26 0 -47 5t-36 10q-5 -3 -14.5 -8.5t-18.5 -12t-16 -15t-7 -18.5q0 -11 6 -17t14 -9t17 -4.5l15 -2.5l119 -19q35 -6 69.5 -15t61.5 -26t43.5 -43t16.5 -66
q0 -52 -23 -89t-58.5 -60t-78.5 -34t-83 -11q-33 0 -72.5 5t-73 21t-56.5 46t-23 81q0 33 16.5 58.5t39 43.5t45 29.5t33.5 16.5q-14 3 -34.5 7t-39.5 11.5t-32.5 19t-13.5 30.5q0 18 13 34t31 28.5t37 22.5t31 17q-26 22 -41 54t-15 77q0 38 15 69.5t40.5 54t58 35
t68.5 12.5q15 0 34 -2.5t39 -9.5l188 1v-58h-88zM359 340q0 18 -3.5 37.5t-14 36.5t-28.5 28t-48 11q-24 0 -43 -9.5t-32 -25.5t-20 -37.5t-7 -45.5q0 -21 6 -40.5t17.5 -34.5t28.5 -24.5t40 -9.5q53 0 78.5 32.5t25.5 81.5zM394 -86q0 25 -9 42t-24 28t-33.5 17.5
t-36.5 9.5l-32 6q-14 2 -28.5 5t-25.5 5q-19 -10 -39 -22.5t-36.5 -29t-27 -37t-10.5 -47.5q0 -30 14 -49t35 -30.5t45.5 -15.5t46.5 -4q25 0 53 7t52 21.5t40 37.5t16 56z" />
    <glyph glyph-name="h" unicode="h" horiz-adv-x="577" 
d="M486 0h-83l3 357q0 24 -8 40t-20.5 25.5t-28.5 13t-31 3.5q-24 0 -44 -8.5t-37.5 -22t-33 -31t-29.5 -34.5l-3 -343h-83l6 751h83l-2 -242q0 -42 -4.5 -68t-4.5 -27q31 38 74 66.5t91 28.5q159 0 158 -149z" />
    <glyph glyph-name="i" unicode="i" horiz-adv-x="267" 
d="M88 595v95h97v-95h-97zM172 0h-83l4 498h83z" />
    <glyph glyph-name="j" unicode="j" horiz-adv-x="267" 
d="M88 595v95h97v-95h-97zM172 -41q0 -47 -10 -88t-32.5 -71t-60 -47t-93.5 -17l-38 1l4 59h33q36 0 58 13t34 35.5t16.5 51.5t4.5 61l5 541h83z" />
    <glyph glyph-name="k" unicode="k" horiz-adv-x="516" 
d="M282 263l201 -234l-72 -45l-234 276l255 253l64 -41zM171 0h-83l6 751h83z" />
    <glyph glyph-name="l" unicode="l" horiz-adv-x="265" 
d="M171 0h-83l6 751h83z" />
    <glyph glyph-name="m" unicode="m" horiz-adv-x="864" 
d="M773 0h-83l2 362q0 37 -20 58t-56 21q-21 0 -40 -8.5t-36.5 -22.5t-33.5 -31t-31 -35l-3 -344h-83l3 361q0 37 -21.5 58.5t-57.5 21.5q-23 0 -42.5 -8.5t-36.5 -22.5t-32 -31t-29 -33l-2 -346h-83l4 498h79q0 -15 -0.5 -29.5t-1.5 -25.5l-2 -26q31 38 75.5 65t94.5 27
q46 0 82.5 -23t46.5 -70q16 17 35 34t41 30t45.5 21t47.5 8q75 0 108.5 -39.5t32.5 -111.5z" />
    <glyph glyph-name="n" unicode="n" horiz-adv-x="577" 
d="M486 0h-83l2 361q0 24 -8.5 39t-21.5 23.5t-28.5 11.5t-28.5 3q-24 0 -44 -8.5t-37.5 -22t-33 -30.5t-29.5 -34l-3 -343h-83l4 498h80q0 -14 -1 -28.5t-2 -27.5q-2 -15 -3 -29q14 19 32.5 36t40 30.5t45 21.5t47.5 8q76 0 117.5 -34.5t40.5 -110.5z" />
    <glyph glyph-name="o" unicode="o" 
d="M528 249q0 -53 -17 -100t-48.5 -82.5t-76 -56.5t-99.5 -21q-59 0 -102.5 20t-72 55t-42.5 82.5t-14 102.5q0 52 17 99t48.5 83t76 57t99.5 21q59 0 102.5 -20t72 -55t42.5 -82.5t14 -102.5zM441 249q0 34 -7 69.5t-24 64.5t-45 47t-69 18t-69.5 -18t-47.5 -47
t-27.5 -64.5t-8.5 -69.5q0 -35 7 -70.5t24 -64t44.5 -46.5t69.5 -18q40 0 69 18t47.5 46.5t27.5 64t9 70.5z" />
    <glyph glyph-name="p" unicode="p" horiz-adv-x="588" 
d="M532 266q0 -51 -14.5 -100.5t-43.5 -88.5t-72.5 -63.5t-102.5 -24.5q-47 0 -75.5 11t-54.5 36q0 -6 2 -23.5t2 -39.5l-2 -226h-83l6 751h78v-24q0 -11 -0.5 -22t-1.5 -20q29 34 70 55.5t91 21.5q56 0 94.5 -20t62 -53.5t34 -77.5t10.5 -92zM445 264q0 34 -7 67t-22.5 59
t-41 42t-61.5 16q-45 0 -80.5 -28.5t-56.5 -65.5l-2 -240q21 -33 52 -48.5t67 -15.5q43 0 72 21.5t47 54t25.5 69.5t7.5 69z" />
    <glyph glyph-name="q" unicode="q" horiz-adv-x="587" 
d="M493 -253h-83l2 243q0 6 0.5 16.5t1 21.5t1.5 21.5t2 16.5q-29 -34 -71.5 -55.5t-87.5 -21.5q-56 0 -94.5 20t-62.5 53.5t-34.5 77.5t-10.5 92q0 49 13.5 98.5t42 89.5t72.5 64.5t106 24.5q23 0 41 -3t33 -9t28.5 -15t27.5 -21l2 37h77zM415 383q-21 33 -52 49t-67 16
q-43 0 -72.5 -21.5t-47.5 -54t-25.5 -70t-7.5 -68.5q0 -34 7 -67t23 -59t41.5 -42t61.5 -16q22 0 42.5 8t38 21t31.5 30.5t25 35.5z" />
    <glyph glyph-name="r" unicode="r" horiz-adv-x="356" 
d="M332 426q-17 5 -31 5q-21 0 -40.5 -10t-35.5 -25.5t-29 -34t-22 -34.5l-3 -327h-83l4 498h80l-2 -92q11 20 26 38.5t33.5 33t39.5 23t44 8.5t43 -7z" />
    <glyph glyph-name="s" unicode="s" horiz-adv-x="407" 
d="M330 421q-22 12 -45 19.5t-49 7.5q-18 0 -35.5 -3t-31.5 -11.5t-23 -23t-9 -37.5q0 -26 16.5 -41t42 -27t54.5 -23t54.5 -29t42 -45.5t16.5 -70.5q0 -38 -15.5 -66t-40.5 -46t-56 -27t-62 -9q-44 0 -80.5 10.5t-70.5 31.5l37 55q25 -16 49.5 -25.5t61.5 -9.5
q36 0 63.5 17.5t27.5 57.5q0 31 -16.5 49t-41.5 30.5t-54.5 22.5t-54.5 26t-41.5 41.5t-16.5 67.5q0 40 16.5 68t42.5 45.5t57.5 25t61.5 7.5q32 0 70 -9t65 -25z" />
    <glyph glyph-name="t" unicode="t" horiz-adv-x="361" 
d="M353 34q-29 -18 -62.5 -31.5t-65.5 -13.5q-61 0 -90.5 33t-28.5 94l2 315h-86v67h87l1 161h83l-1 -161h145v-67h-146l-2 -306q0 -29 11.5 -49t43.5 -21q20 0 43 9.5t37 20.5l29 -51v0z" />
    <glyph glyph-name="u" unicode="u" horiz-adv-x="575" 
d="M483 0h-80q0 14 0.5 28.5t2.5 27.5q1 15 3 29q-14 -19 -32.5 -36t-40 -30.5t-45 -21.5t-47.5 -8q-76 0 -117.5 34.5t-40.5 110.5l3 364h83l-2 -361q0 -24 8.5 -39t21.5 -23.5t28.5 -11.5t28.5 -3q24 0 44 8.5t38 22t33.5 30.5t29.5 34l2 343h83z" />
    <glyph glyph-name="v" unicode="v" horiz-adv-x="496" 
d="M280 0h-80l-178 486l80 21l118 -333q6 -17 10.5 -33.5t7.5 -30.5q4 -16 7 -30q4 15 8 32q4 14 8.5 31t11.5 33l131 331l74 -20z" />
    <glyph glyph-name="w" unicode="w" horiz-adv-x="795" 
d="M595 0h-85l-93 326q-4 13 -7.5 29.5t-6.5 31.5q-4 18 -6 35l-8 -36q-4 -15 -8 -32.5t-9 -30.5l-118 -323h-85l-145 489l81 19l91 -330q5 -19 9 -37t7 -32q3 -17 5 -32q4 15 8 33q4 14 8.5 32.5t11.5 35.5l116 320h83l92 -317q6 -20 10.5 -39.5t7.5 -33.5q4 -18 7 -32
l1.5 9t5 24t8.5 34.5t12 40.5l111 323l76 -15z" />
    <glyph glyph-name="x" unicode="x" horiz-adv-x="478" 
d="M380 -14l-120 173q-5 8 -10 15.5t-8 14.5q-4 8 -7 15q-4 -7 -8 -15q-4 -7 -9.5 -15t-10.5 -16l-123 -172l-64 37l169 229l-160 222l76 38l111 -161l10 -16t8 -15q4 -8 7 -15q4 7 8 15q4 7 9 15.5t12 17.5l114 159l65 -36l-163 -218l168 -233z" />
    <glyph glyph-name="y" unicode="y" horiz-adv-x="487" 
d="M343 165q-17 -42 -34 -82.5t-33 -82.5q-11 -29 -21.5 -60.5t-22 -60.5t-24 -53.5t-25.5 -37.5q-17 -18 -35 -27.5t-37.5 -14t-42.5 -5t-50 0.5l6 59q30 -1 54 1t43 21q13 13 24.5 38t21 52t16.5 51t12 37l-177 486l80 21l117 -336q4 -11 8 -26.5t9 -29.5q4 -17 10 -34
q5 17 9 34q4 14 8.5 30t9.5 27l131 334l75 -20z" />
    <glyph glyph-name="z" unicode="z" horiz-adv-x="443" 
d="M172 119q-8 -10 -16 -19.5t-15 -17.5q-8 -10 -16 -18q14 0 27 1q11 1 23.5 1.5t22.5 0.5h206v-67h-351l-27 54l247 329q8 10 15 19t14 17q7 9 15 16q-14 -1 -27 -2q-11 -1 -23.5 -1.5t-22.5 -0.5h-197v67h342l28 -55z" />
    <glyph glyph-name="braceleft" unicode="{" horiz-adv-x="357" 
d="M287 668q-38 0 -49 -21t-11 -50l-1 -166q0 -52 -22.5 -80.5t-64.5 -39.5q43 -10 64 -35t20 -77l-2 -160q0 -14 0.5 -29.5t5 -29t15.5 -22t33 -8.5h60v-60h-90q-32 0 -52.5 10.5t-31.5 27.5t-15 38t-4 43l1 168q0 18 -2.5 36t-12.5 32t-28.5 22.5t-49.5 7.5v66
q30 -2 48.5 8.5t29 26.5t14.5 35.5t4 37.5l1 165q0 22 6.5 42.5t20 36.5t34 25.5t49.5 9.5h86v-60h-56z" />
    <glyph glyph-name="bar" unicode="|" horiz-adv-x="435" 
d="M179 -253v1004h77l1 -1004h-78z" />
    <glyph glyph-name="braceright" unicode="}" horiz-adv-x="357" 
d="M331 274q-30 1 -49 -9t-29.5 -26t-14.5 -35.5t-4 -37.5l-1 -162q0 -22 -6.5 -42.5t-19.5 -36.5t-34 -25.5t-49 -9.5h-88v60h58q38 0 49 21t11 50l1 163q0 52 22.5 80.5t64.5 39.5q-43 10 -64 35t-21 77l1 163v29.5t-4.5 29t-15.5 22t-33 8.5h-61v60h91q32 0 52 -10.5
t31.5 -27.5t15.5 -38t4 -43l-1 -171q0 -18 3 -36t12.5 -32t28 -22.5t50.5 -7.5v-66v0z" />
    <glyph glyph-name="asciitilde" unicode="~" 
d="M546 339q-9 -31 -22.5 -61t-33 -54t-46.5 -38.5t-64 -14.5q-32 0 -52.5 9t-34.5 22.5t-24 29.5t-20 29.5t-23.5 22.5t-33.5 9t-35 -12.5t-26 -31t-18.5 -38.5t-12.5 -35l-62 17q9 31 22.5 61t33 54t46.5 38.5t64 14.5q32 0 52.5 -9t34.5 -22.5t24 -29t20 -29t23 -22.5
t34 -9q20 0 35 12.5t25.5 30.5t18 38t12.5 35z" />
    <glyph glyph-name="uni00A0" unicode="&#xa0;" horiz-adv-x="292" 
 />
    <glyph glyph-name="exclamdown" unicode="&#xa1;" horiz-adv-x="322" 
d="M118 399v99h92v-99h-92zM201 -194h-86l3 310q0 25 1 58t3 62q2 34 4 69h71q2 -36 4 -70q2 -29 2.5 -61.5t0.5 -56.5z" />
    <glyph glyph-name="cent" unicode="&#xa2;" 
d="M450 408q-18 14 -38.5 22t-40.5 12l-62 -387q4 -1 8 -1h9q35 0 61.5 13.5t51.5 39.5l47 -42q-29 -31 -70.5 -53t-102.5 -22h-14l-13 -80l-44 2l14 84q-50 10 -81 37t-48.5 62.5t-24 74t-6.5 73.5q0 51 16.5 98.5t47.5 84.5t74 59.5t96 22.5h9l12 77l43 -1l-12 -79
q27 -4 53 -14t57 -35zM328 445q-38 -2 -65.5 -20.5t-45 -48t-26 -66.5t-8.5 -74q0 -27 4.5 -53t15 -48.5t26 -40.5t38.5 -28z" />
    <glyph glyph-name="sterling" unicode="&#xa3;" 
d="M530 634q-8 0 -16 1q-7 1 -14.5 1.5t-14.5 0.5q-50 0 -83.5 -11t-54.5 -34t-32 -59.5t-16 -87.5l-5 -49h124l-7 -68h-125l-5 -51q-3 -36 -8 -70.5t-14.5 -63t-25 -48.5t-39.5 -26q3 0 25.5 1.5t46.5 1.5h233l-8 -72h-437l6 60q43 3 68 22t38.5 48t18.5 64.5t8 71.5l6 62
h-100l7 68h102l4 41q6 60 20 109t43 84t76.5 54t120.5 19q8 0 20.5 -1t23.5 -2q13 -1 27 -2z" />
    <glyph glyph-name="currency" unicode="&#xa4;" horiz-adv-x="587" 
d="M122 233q-20 26 -31 58.5t-11 65.5q0 35 10.5 65t30.5 59l-66 65l49 49l65 -65q29 19 60 29.5t65 10.5q36 0 65 -10.5t59 -29.5l64 65l50 -49l-65 -65q41 -55 41 -125q0 -34 -11 -64.5t-31 -58.5l66 -65l-49 -49l-65 65q-24 -20 -58.5 -30t-64.5 -10q-70 0 -124 40
l-65 -65l-50 49zM295 496q-29 0 -54.5 -11t-45 -29.5t-30.5 -44t-11 -54.5t11 -54t30 -44t44 -30t54 -11t54.5 11t45 29.5t30.5 44t11 54.5q0 28 -11 53.5t-30 44.5t-44.5 30t-53.5 11z" />
    <glyph glyph-name="yen" unicode="&#xa5;" 
d="M365 381h128v-54h-161l-1 -86h162v-54h-162l-2 -187h-88l2 187h-152v54h152l1 85l-1 1h-152v54h117l-191 288l83 39l146 -227q11 -18 20 -34t15 -27q7 -13 11 -24q6 14 14 29q7 13 16.5 29t20.5 33l150 220l74 -37z" />
    <glyph glyph-name="brokenbar" unicode="&#xa6;" horiz-adv-x="435" 
d="M180 411v250h76v-250h-76zM179 -89v250h78v-250h-78z" />
    <glyph glyph-name="section" unicode="&#xa7;" 
d="M507 321q0 -25 -10.5 -44t-28 -34t-39 -27.5t-42.5 -22.5q21 -8 39 -19t30.5 -26t20 -35.5t7.5 -48.5q0 -43 -19.5 -74t-50.5 -51.5t-70.5 -31t-79.5 -10.5q-49 -1 -92 12.5t-84 39.5l40 56q60 -43 129 -43q24 0 48.5 4t44.5 14.5t33 29.5t13 48q0 32 -23.5 50.5t-59 31
t-76.5 22.5t-76.5 25.5t-59 40.5t-23.5 67q0 26 11 46t28 35t39 27t44 22q-38 20 -62 49t-24 71q0 43 18.5 73.5t48.5 49t68 27t77 8.5q48 0 87 -10.5t75 -32.5l-39 -56q-17 9 -31.5 15.5t-29 10.5t-29.5 6t-33 2q-55 0 -89.5 -18.5t-34.5 -60.5q0 -36 22.5 -56t56.5 -32.5
t73.5 -22t73.5 -24t56.5 -38t22.5 -65.5zM426 299q0 21 -8.5 34t-21 21t-28.5 13t-31 10l-86 26q-14 -6 -30 -14.5t-30 -19.5t-23.5 -24t-9.5 -29q0 -32 21.5 -48t47.5 -24l108 -32q12 6 28 15t30 19.5t23.5 24t9.5 28.5z" />
    <glyph glyph-name="dieresis" unicode="&#xa8;" horiz-adv-x="267" 
d="M170 594v95h96v-95h-96zM2 594v95h95v-95h-95z" />
    <glyph glyph-name="copyright" unicode="&#xa9;" horiz-adv-x="850" 
d="M785 346q0 -75 -28.5 -140t-77 -113t-114 -76t-140.5 -28q-78 0 -144 26t-114 73.5t-75 113t-27 144.5q0 75 28.5 140t77 113t114 76t140.5 28q76 0 142 -26.5t114.5 -73.5t76 -113t27.5 -144zM730 347q0 65 -23 121.5t-64 98.5t-96.5 66t-121.5 24t-121.5 -24t-96.5 -66
t-64 -98.5t-23 -121.5t23 -122t63.5 -99t96.5 -66.5t122 -24.5t122 24.5t96.5 66.5t63.5 99t23 122zM571 494q-28 13 -53.5 19t-58.5 6q-37 0 -65 -14.5t-47.5 -39t-29.5 -55.5t-10 -64q0 -35 9.5 -66t28.5 -54t47 -36t66 -13q32 0 58 8.5t53 21.5l29 -56q-32 -16 -71 -28
t-76 -12q-114 0 -172.5 62.5t-58.5 169.5q0 52 18 96t50 76t76 50t97 18q40 0 71 -7.5t67 -24.5z" />
    <glyph glyph-name="ordfeminine" unicode="&#xaa;" horiz-adv-x="306" 
d="M306 292q-14 -9 -30.5 -15.5t-29.5 -6.5q-50 0 -46 47q-17 -21 -37.5 -34t-49.5 -13q-40 0 -64.5 22.5t-24.5 62.5q0 34 17.5 54.5t43.5 32t57 16t57 6.5q-1 0 -0.5 5.5t0.5 12.5q0 8 1 18q1 21 -10.5 33t-32.5 12q-24 0 -45.5 -11.5t-40.5 -26.5l-22 32q28 20 56.5 33
t66.5 13q36 0 58 -19.5t21 -54.5l-4 -159v-12.5t2 -14t6 -11t12 -4.5t13 3.5t11 7.5zM198 425q-19 -2 -40 -4t-39 -8.5t-29.5 -19t-11.5 -35.5q0 -50 50 -50q26 0 41 16.5t27 30.5z" />
    <glyph glyph-name="guillemotleft" unicode="&#xab;" horiz-adv-x="460" 
d="M290 263l109 -162l-39 -23l-154 185l164 195l39 -23zM120 263l109 -162l-39 -23l-154 185l164 195l39 -23z" />
    <glyph glyph-name="logicalnot" unicode="&#xac;" 
d="M510 108h-78l2 207h-372v73h450z" />
    <glyph glyph-name="uni00AD" unicode="&#xad;" horiz-adv-x="390" 
d="M53 217v73h284v-73h-284z" />
    <glyph glyph-name="registered" unicode="&#xae;" horiz-adv-x="425" 
d="M392 525q0 -38 -14 -70.5t-38.5 -56.5t-57.5 -38t-70 -14q-39 0 -72 13t-57 36.5t-37.5 56.5t-13.5 73q0 37 14 69.5t38.5 56.5t57.5 38t70 14q38 0 71 -13t57 -37t38 -56.5t14 -71.5zM365 525q0 33 -11.5 61t-32 49t-48.5 33t-61 12t-60.5 -12t-48 -33t-32 -49
t-11.5 -61t11.5 -61.5t31.5 -49.5t48 -33t61 -12t61 12t48.5 33t32 49.5t11.5 61.5zM272 405l-75 113l8 18q46 6 46 45q0 22 -15 28t-30 6q-4 0 -9.5 -0.5t-10.5 -0.5h-13l-2 -204h-41l2 231q20 0 38 1q15 1 28 1.5t18 0.5q10 0 23.5 -1.5t25.5 -7.5t20.5 -18.5t8.5 -33.5
q0 -17 -6.5 -29t-15 -19.5t-16 -11t-9.5 -4.5l66 -100z" />
    <glyph glyph-name="macron" unicode="&#xaf;" horiz-adv-x="267" 
d="M-2 604v60h274v-60h-274z" />
    <glyph glyph-name="degree" unicode="&#xb0;" horiz-adv-x="370" 
d="M332 560q0 -28 -11 -54t-30.5 -45.5t-46.5 -31.5t-59 -12q-35 0 -62.5 11t-46 30.5t-28.5 45.5t-10 56t11 56t31 45.5t46.5 30.5t58.5 11q25 0 51.5 -7.5t47.5 -24t34.5 -44t13.5 -67.5zM274 560q0 40 -22.5 68.5t-66.5 28.5q-21 0 -37.5 -8.5t-28 -22t-17.5 -31
t-6 -35.5t6 -35.5t17.5 -31t28 -22t37.5 -8.5t37.5 8.5t28 22t17.5 31t6 35.5z" />
    <glyph glyph-name="plusminus" unicode="&#xb1;" 
d="M331 264l-1 -167h-79l1 167h-196v73h197l1 163h79l-1 -163h199v-73h-200zM53 0v73h475v-73h-475z" />
    <glyph glyph-name="uni00B2" unicode="&#xb2;" horiz-adv-x="376" 
d="M45 280l-14 41q17 13 40 31t47 39t48 44t42.5 47t30 48.5t11.5 48.5q0 37 -23 56t-61 19q-52 0 -91 -28l-25 38q26 18 59 28t65 10q30 0 55.5 -6t44 -20.5t29.5 -37t11 -55.5q0 -45 -26 -84t-59 -72q-31 -32 -63.5 -60t-53.5 -41q6 1 28.5 1.5t53 0.5t63 0.5t57.5 0.5
v-49h-269z" />
    <glyph glyph-name="uni00B3" unicode="&#xb3;" horiz-adv-x="377" 
d="M308 399q0 -31 -13 -54.5t-34 -39.5t-48 -24t-55 -8q-34 0 -61 4.5t-56 16.5l18 42q21 -10 44.5 -13.5t47.5 -3.5q16 0 32 5.5t29.5 15t22 24t8.5 32.5q0 26 -10.5 40.5t-28 21.5t-39 8.5t-42.5 1.5h-36v44h38q18 0 38 3t37.5 11.5t29 23.5t11.5 40q0 37 -25.5 51.5
t-58.5 14.5q-47 0 -87 -20l-18 40q27 14 58 20t57 6t51 -4.5t44.5 -16.5t31 -32.5t11.5 -52.5q0 -41 -25 -66t-58 -35q48 -7 67 -35.5t19 -60.5z" />
    <glyph glyph-name="acute" unicode="&#xb4;" horiz-adv-x="267" 
d="M121 577l-49 21l107 163l80 -39z" />
    <glyph glyph-name="mu" unicode="&#xb5;" 
d="M429 0v71q-28 -40 -61.5 -61t-84.5 -21q-43 0 -71 15t-53 50v-262h-75v687h75v-221q0 -35 3.5 -71t16 -65.5t38 -48.5t69.5 -19q43 0 70.5 19t42.5 48.5t20.5 66t5.5 72.5v219h74v-479h-70z" />
    <glyph glyph-name="paragraph" unicode="&#xb6;" 
d="M491 -92h-70l6 730h-86l-6 -730h-70l3 412q-40 0 -78 9.5t-67 31t-47 56.5t-18 86q0 52 18 88t49 58.5t72.5 32.5t88.5 10h212z" />
    <glyph glyph-name="periodcentered" unicode="&#xb7;" horiz-adv-x="292" 
d="M98 217v101h97v-101h-97z" />
    <glyph glyph-name="cedilla" unicode="&#xb8;" horiz-adv-x="267" 
d="M218 -132q0 -35 -16 -57.5t-41 -35.5t-54.5 -18.5t-56.5 -5.5l10 51q9 0 23 2t27.5 8t23.5 16.5t10 28.5q0 15 -7 24t-17.5 13.5t-21.5 5.5t-19 1h-10t-11 -1l7 57q8 1 14 1h15q13 0 34 -1.5t41 -10t34.5 -26.5t14.5 -52z" />
    <glyph glyph-name="uni00B9" unicode="&#xb9;" horiz-adv-x="376" 
d="M252 280h-60l2 310v15.5t1 15.5q0 8 1 17q-5 -6 -10 -11l-10.5 -10.5t-10.5 -9.5l-76 -57l-33 38l153 114l46 -10z" />
    <glyph glyph-name="ordmasculine" unicode="&#xba;" horiz-adv-x="351" 
d="M319 428q0 -32 -10.5 -60t-29.5 -50t-46 -34.5t-60 -12.5q-36 0 -62 12t-43.5 33.5t-26 50t-8.5 61.5q0 31 10.5 59.5t29.5 50.5t46 35t60 13q35 0 61.5 -12.5t44 -33.5t26 -50t8.5 -62zM264 428q0 20 -4 41t-14 38.5t-26.5 28.5t-40.5 11t-41 -11t-28.5 -28.5
t-16.5 -38.5t-5 -41q0 -21 4 -42t14 -38t26.5 -28t41.5 -11q24 0 41 11t28 28t16 38t5 42z" />
    <glyph glyph-name="guillemotright" unicode="&#xbb;" horiz-adv-x="460" 
d="M260 79l-39 23l119 172l-109 162l39 23l154 -185zM90 79l-39 23l119 172l-109 162l39 23l154 -185z" />
    <glyph glyph-name="onequarter" unicode="&#xbc;" horiz-adv-x="823" 
d="M192 -28l-44 18l443 725l46 -19zM709 108v-108h-58l1 108h-179l-19 42l200 271l57 -10l-1 -257h74v-46h-75zM659 368q-3 -8 -9.5 -21t-12.5 -23l-98 -144q-8 -11 -16 -19q-4 -4 -8 -9q6 0 11 1q5 0 10.5 0.5t12.5 0.5h103l3 164q0 14 1.5 28t2.5 22zM252 280h-60l2 310
v15.5t1 15.5q0 8 1 17q-5 -6 -10 -11l-10.5 -10.5t-10.5 -9.5l-76 -57l-33 38l153 114l46 -10z" />
    <glyph glyph-name="onehalf" unicode="&#xbd;" horiz-adv-x="823" 
d="M192 -28l-44 18l443 725l46 -19zM252 280h-60l2 310v15.5t1 15.5q0 8 1 17q-5 -6 -10 -11l-10.5 -10.5t-10.5 -9.5l-76 -57l-33 38l153 114l46 -10zM509 1l-14 41q17 13 40 31t47 39t48 44t42.5 47.5t30 48.5t11.5 48q0 37 -23 56t-61 19q-52 0 -91 -28l-25 38
q26 18 59 28t65 10q30 0 55.5 -6t44 -20.5t29.5 -37t11 -55.5q0 -45 -26 -84t-59 -72q-31 -32 -63.5 -60t-53.5 -41q6 1 28.5 1.5t53 0.5t63 0.5t57.5 0.5v-49h-269z" />
    <glyph glyph-name="threequarters" unicode="&#xbe;" horiz-adv-x="823" 
d="M192 -28l-44 18l443 725l46 -19zM709 108v-108h-58l1 108h-179l-19 42l200 271l57 -10l-1 -257h74v-46h-75zM659 368q-3 -8 -9.5 -21t-12.5 -23l-98 -144q-8 -11 -16 -19q-4 -4 -8 -9q6 0 11 1q5 0 10.5 0.5t12.5 0.5h103l3 164q0 14 1.5 28t2.5 22zM288 399
q0 -31 -13 -54.5t-34 -39.5t-48 -24t-55 -8q-34 0 -61 4.5t-56 16.5l18 42q21 -10 44.5 -13.5t47.5 -3.5q16 0 32 5.5t29.5 15t22 24t8.5 32.5q0 26 -10.5 40.5t-28 21.5t-39 8.5t-42.5 1.5h-36v44h38q18 0 38 3t37.5 11.5t29 23.5t11.5 40q0 37 -25.5 51.5t-58.5 14.5
q-47 0 -87 -20l-18 40q27 14 58 20t57 6t51 -4.5t44.5 -16.5t31 -32.5t11.5 -52.5q0 -41 -25 -66t-58 -35q48 -7 67 -35.5t19 -60.5z" />
    <glyph glyph-name="questiondown" unicode="&#xbf;" horiz-adv-x="486" 
d="M217 399v99h96v-99h-96zM450 -129q-92 -76 -203 -76q-41 0 -79.5 8t-67.5 28t-46.5 54t-17.5 85q0 43 13.5 73t34.5 52t44.5 39.5t44.5 35.5t34.5 39.5t13.5 52.5v57h86v-52q0 -40 -13.5 -67.5t-34.5 -48t-44.5 -37.5t-44.5 -36.5t-34.5 -45t-13.5 -61.5q0 -29 11 -49.5
t29.5 -34.5t42 -20.5t49.5 -6.5q43 0 83 15.5t72 44.5z" />
    <glyph glyph-name="Agrave" unicode="&#xc0;" horiz-adv-x="687" 
d="M580 -14l-94 244h-285l-97 -244l-82 25l290 681h82l271 -679zM379 502q-5 11 -11 29.5t-11 35.5q-6 20 -12 41q-6 -19 -11 -37q-5 -16 -11 -34t-12 -34l-81 -201h227zM350 736l-134 145l80 39l103 -163z" />
    <glyph glyph-name="Aacute" unicode="&#xc1;" horiz-adv-x="687" 
d="M580 -14l-94 244h-285l-97 -244l-82 25l290 681h82l271 -679zM379 502q-5 11 -11 29.5t-11 35.5q-6 20 -12 41q-6 -19 -11 -37q-5 -16 -11 -34t-12 -34l-81 -201h227zM365 737l-49 21l107 163l80 -39z" />
    <glyph glyph-name="Acircumflex" unicode="&#xc2;" horiz-adv-x="687" 
d="M580 -14l-94 244h-285l-97 -244l-82 25l290 681h82l271 -679zM379 502q-5 11 -11 29.5t-11 35.5q-6 20 -12 41q-6 -19 -11 -37q-5 -16 -11 -34t-12 -34l-81 -201h227zM431 737l-76 113l-83 -112l-48 15l95 155h76l86 -155z" />
    <glyph glyph-name="Atilde" unicode="&#xc3;" horiz-adv-x="687" 
d="M580 -14l-94 244h-285l-97 -244l-82 25l290 681h82l271 -679zM379 502q-5 11 -11 29.5t-11 35.5q-6 20 -12 41q-6 -19 -11 -37q-5 -16 -11 -34t-12 -34l-81 -201h227zM520 841q-6 -20 -14.5 -38t-20.5 -32t-28.5 -22.5t-39.5 -8.5q-28 0 -46 7t-32.5 16t-27 16t-29.5 7
q-20 0 -34 -17t-17 -35l-49 12q5 19 13.5 37t21 32t29.5 22.5t39 8.5q28 0 47.5 -7t34.5 -16t28 -16t27 -7q22 0 33.5 15t18.5 38l46 -12v0z" />
    <glyph glyph-name="Adieresis" unicode="&#xc4;" horiz-adv-x="687" 
d="M580 -14l-94 244h-285l-97 -244l-82 25l290 681h82l271 -679zM379 502q-5 11 -11 29.5t-11 35.5q-6 20 -12 41q-6 -19 -11 -37q-5 -16 -11 -34t-12 -34l-81 -201h227zM388 744v95h96v-95h-96zM220 744v95h95v-95h-95z" />
    <glyph glyph-name="Aring" unicode="&#xc5;" horiz-adv-x="687" 
d="M580 -14l-94 244h-285l-97 -244l-82 25l290 681h82l271 -679zM379 502q-5 11 -11 29.5t-11 35.5q-6 20 -12 41q-6 -19 -11 -37q-5 -16 -11 -34t-12 -34l-81 -201h227zM456 818q0 -44 -29.5 -73t-77.5 -29q-46 0 -77 26.5t-31 75.5q0 44 30.5 73t78.5 29t77 -26.5
t29 -75.5zM406 818q0 31 -16 46t-41 15q-24 0 -41 -16t-17 -45q0 -31 16.5 -46t41.5 -15q26 0 41.5 17.5t15.5 43.5z" />
    <glyph glyph-name="AE" unicode="&#xc6;" horiz-adv-x="904" 
d="M460 0l3 230h-236l-163 -244l-76 33l453 673h397v-72h-287l-2 -235h280v-72h-279l-2 -241h294v-72h-382zM470 620q-13 -22 -24 -42q-10 -17 -20.5 -34.5t-17.5 -28.5l-134 -213h190l3 204q0 14 0.5 33.5t1.5 37.5q1 21 1 43z" />
    <glyph glyph-name="Ccedilla" unicode="&#xc7;" horiz-adv-x="626" 
d="M568 603q-20 9 -36.5 15t-33.5 9.5t-36 4.5t-43 1q-61 0 -108.5 -23.5t-80.5 -63t-50.5 -92.5t-17.5 -112q0 -62 14.5 -113.5t44.5 -89t75 -58.5t107 -21q50 0 88.5 13.5t71.5 29.5l31 -62q-43 -23 -96.5 -37.5t-104.5 -14.5q-72 0 -131 24t-102 69t-66.5 109.5
t-23.5 144.5q0 78 26 145t72.5 116.5t111.5 77.5t142 28q29 0 51 -1t42 -5t41 -10.5t48 -17.5zM474 -132q0 -35 -16 -57.5t-41 -35.5t-54.5 -18.5t-56.5 -5.5l10 51q9 0 23 2t27.5 8t23.5 16.5t10 28.5q0 15 -7 24t-17.5 13.5t-21.5 5.5t-19 1h-10t-11 -1l7 57q8 1 14 1h15
q13 0 34 -1.5t41 -10t34.5 -26.5t14.5 -52z" />
    <glyph glyph-name="Egrave" unicode="&#xc8;" horiz-adv-x="553" 
d="M112 0l6 692h370v-73h-283l-2 -232h275v-73h-276l-1 -240h290v-74h-379zM322 737l-134 145l80 39l103 -163z" />
    <glyph glyph-name="Eacute" unicode="&#xc9;" horiz-adv-x="553" 
d="M112 0l6 692h370v-73h-283l-2 -232h275v-73h-276l-1 -240h290v-74h-379zM312 737l-49 21l107 163l80 -39z" />
    <glyph glyph-name="Ecircumflex" unicode="&#xca;" horiz-adv-x="553" 
d="M112 0l6 692h370v-73h-283l-2 -232h275v-73h-276l-1 -240h290v-74h-379zM391 737l-76 113l-83 -112l-48 15l95 155h76l86 -155z" />
    <glyph glyph-name="Edieresis" unicode="&#xcb;" horiz-adv-x="553" 
d="M112 0l6 692h370v-73h-283l-2 -232h275v-73h-276l-1 -240h290v-74h-379zM343 744v95h96v-95h-96zM175 744v95h95v-95h-95z" />
    <glyph glyph-name="Igrave" unicode="&#xcc;" horiz-adv-x="318" 
d="M200 0h-88l6 692h88zM177 737l-134 145l80 39l103 -163z" />
    <glyph glyph-name="Iacute" unicode="&#xcd;" horiz-adv-x="318" 
d="M200 0h-88l6 692h88zM156 737l-49 21l107 163l80 -39z" />
    <glyph glyph-name="Icircumflex" unicode="&#xce;" horiz-adv-x="318" 
d="M200 0h-88l6 692h88zM239 736l-76 113l-83 -112l-48 15l95 155h76l86 -155z" />
    <glyph glyph-name="Idieresis" unicode="&#xcf;" horiz-adv-x="318" 
d="M200 0h-88l6 692h88zM200 744v95h96v-95h-96zM32 744v95h95v-95h-95z" />
    <glyph glyph-name="Eth" unicode="&#xd0;" horiz-adv-x="760" 
d="M690 377q0 -89 -30 -159.5t-83 -120t-125.5 -76t-158.5 -26.5q-17 0 -40.5 0.5t-49 1t-49.5 1.5t-42 2l3 328h-97v60h97l3 304q49 2 102.5 5t99.5 3q82 0 150 -18t117 -56.5t76 -100t27 -148.5zM598 372q0 72 -21.5 121t-60.5 79t-94.5 43t-124.5 13q-13 0 -29 -0.5
t-30 -1.5q-17 -1 -33 -2l-2 -236h178v-60h-178l-2 -259q18 -1 45 -1.5t44 -0.5q70 0 126.5 19.5t97 58t62.5 95.5t22 132z" />
    <glyph glyph-name="Ntilde" unicode="&#xd1;" horiz-adv-x="769" 
d="M652 11l-94 -23l-298 476q-14 21 -25.5 43.5t-21.5 41.5q-11 22 -21 43q0 -24 1 -45q1 -19 1.5 -38t0.5 -32l-2 -477h-81l6 680l93 23l299 -475q13 -21 25.5 -44t21.5 -42q11 -22 20 -43q-1 32 -2 60q-1 24 -1 48v37l2 448h81zM577 842q-6 -20 -14.5 -38t-20.5 -32
t-28.5 -22.5t-39.5 -8.5q-28 0 -46 7t-32.5 16t-27 16t-29.5 7q-20 0 -34 -17t-17 -35l-49 12q5 19 13.5 37t21 32t29.5 22.5t39 8.5q28 0 47.5 -7t34.5 -16t28 -16t27 -7q22 0 33.5 15t18.5 38l46 -12v0z" />
    <glyph glyph-name="Ograve" unicode="&#xd2;" horiz-adv-x="805" 
d="M735 345q0 -78 -26.5 -143t-72 -112.5t-106.5 -74t-130 -26.5q-72 0 -132.5 25.5t-104.5 72t-68.5 112.5t-24.5 146q0 78 27.5 143.5t74 113.5t108 74.5t129.5 26.5q72 0 132 -25.5t103 -72.5t67 -113t24 -147zM643 343q0 60 -16 113t-46 92t-74 62t-101 23
q-51 0 -95.5 -20.5t-77.5 -58t-52 -90t-19 -117.5q0 -62 16.5 -114.5t47.5 -91t75 -60.5t99 -22q54 0 99 22.5t77 61t49.5 90t17.5 110.5zM406 738l-134 145l80 39l103 -163z" />
    <glyph glyph-name="Oacute" unicode="&#xd3;" horiz-adv-x="805" 
d="M735 345q0 -78 -26.5 -143t-72 -112.5t-106.5 -74t-130 -26.5q-72 0 -132.5 25.5t-104.5 72t-68.5 112.5t-24.5 146q0 78 27.5 143.5t74 113.5t108 74.5t129.5 26.5q72 0 132 -25.5t103 -72.5t67 -113t24 -147zM643 343q0 60 -16 113t-46 92t-74 62t-101 23
q-51 0 -95.5 -20.5t-77.5 -58t-52 -90t-19 -117.5q0 -62 16.5 -114.5t47.5 -91t75 -60.5t99 -22q54 0 99 22.5t77 61t49.5 90t17.5 110.5zM388 738l-49 21l107 163l80 -39z" />
    <glyph glyph-name="Ocircumflex" unicode="&#xd4;" horiz-adv-x="805" 
d="M735 345q0 -78 -26.5 -143t-72 -112.5t-106.5 -74t-130 -26.5q-72 0 -132.5 25.5t-104.5 72t-68.5 112.5t-24.5 146q0 78 27.5 143.5t74 113.5t108 74.5t129.5 26.5q72 0 132 -25.5t103 -72.5t67 -113t24 -147zM643 343q0 60 -16 113t-46 92t-74 62t-101 23
q-51 0 -95.5 -20.5t-77.5 -58t-52 -90t-19 -117.5q0 -62 16.5 -114.5t47.5 -91t75 -60.5t99 -22q54 0 99 22.5t77 61t49.5 90t17.5 110.5zM482 737l-76 113l-83 -112l-48 15l95 155h76l86 -155z" />
    <glyph glyph-name="Otilde" unicode="&#xd5;" horiz-adv-x="805" 
d="M735 345q0 -78 -26.5 -143t-72 -112.5t-106.5 -74t-130 -26.5q-72 0 -132.5 25.5t-104.5 72t-68.5 112.5t-24.5 146q0 78 27.5 143.5t74 113.5t108 74.5t129.5 26.5q72 0 132 -25.5t103 -72.5t67 -113t24 -147zM643 343q0 60 -16 113t-46 92t-74 62t-101 23
q-51 0 -95.5 -20.5t-77.5 -58t-52 -90t-19 -117.5q0 -62 16.5 -114.5t47.5 -91t75 -60.5t99 -22q54 0 99 22.5t77 61t49.5 90t17.5 110.5zM573 842q-6 -20 -14.5 -38t-20.5 -32t-28.5 -22.5t-39.5 -8.5q-28 0 -46 7t-32.5 16t-27 16t-29.5 7q-20 0 -34 -17t-17 -35l-49 12
q5 19 13.5 37t21 32t29.5 22.5t39 8.5q28 0 47.5 -7t34.5 -16t28 -16t27 -7q22 0 33.5 15t18.5 38l46 -12v0z" />
    <glyph glyph-name="Odieresis" unicode="&#xd6;" horiz-adv-x="805" 
d="M735 345q0 -78 -26.5 -143t-72 -112.5t-106.5 -74t-130 -26.5q-72 0 -132.5 25.5t-104.5 72t-68.5 112.5t-24.5 146q0 78 27.5 143.5t74 113.5t108 74.5t129.5 26.5q72 0 132 -25.5t103 -72.5t67 -113t24 -147zM643 343q0 60 -16 113t-46 92t-74 62t-101 23
q-51 0 -95.5 -20.5t-77.5 -58t-52 -90t-19 -117.5q0 -62 16.5 -114.5t47.5 -91t75 -60.5t99 -22q54 0 99 22.5t77 61t49.5 90t17.5 110.5zM444 744v95h96v-95h-96zM276 744v95h95v-95h-95z" />
    <glyph glyph-name="multiply" unicode="&#xd7;" 
d="M469 21l-179 180l-179 -180l-53 49l185 181l-182 180l58 51l177 -177l178 179l53 -47l-181 -182l181 -181z" />
    <glyph glyph-name="Oslash" unicode="&#xd8;" horiz-adv-x="805" 
d="M735 345q0 -78 -26.5 -143t-72 -112.5t-106.5 -74t-130 -26.5q-61 0 -113 18t-94 52l-84 -103l-39 24l90 110q-42 47 -66 111.5t-24 143.5q0 78 27.5 143.5t74 113.5t108 74.5t129.5 26.5q57 0 107 -16.5t90 -47.5l76 94l41 -24l-82 -101q45 -48 69.5 -114t24.5 -149z
M555 577q-29 26 -66 41t-83 15q-51 0 -95.5 -20.5t-77.5 -58t-52 -90t-19 -117.5q0 -56 13 -104t39 -86zM643 343q0 118 -57 198l-342 -420q30 -29 69 -45.5t87 -16.5q54 0 99 22.5t77 61t49.5 90t17.5 110.5z" />
    <glyph glyph-name="Ugrave" unicode="&#xd9;" horiz-adv-x="726" 
d="M621 274q-1 -135 -66.5 -210t-204.5 -75q-135 0 -192.5 66.5t-55.5 197.5l4 439h88l-4 -451q-1 -90 39 -136t133 -46q51 0 84.5 15t54 42.5t29.5 65.5t9 84l3 426h82zM363 736l-134 145l80 39l103 -163z" />
    <glyph glyph-name="Uacute" unicode="&#xda;" horiz-adv-x="726" 
d="M621 274q-1 -135 -66.5 -210t-204.5 -75q-135 0 -192.5 66.5t-55.5 197.5l4 439h88l-4 -451q-1 -90 39 -136t133 -46q51 0 84.5 15t54 42.5t29.5 65.5t9 84l3 426h82zM359 736l-49 21l107 163l80 -39z" />
    <glyph glyph-name="Ucircumflex" unicode="&#xdb;" horiz-adv-x="726" 
d="M621 274q-1 -135 -66.5 -210t-204.5 -75q-135 0 -192.5 66.5t-55.5 197.5l4 439h88l-4 -451q-1 -90 39 -136t133 -46q51 0 84.5 15t54 42.5t29.5 65.5t9 84l3 426h82zM444 736l-76 113l-83 -112l-48 15l95 155h76l86 -155z" />
    <glyph glyph-name="Udieresis" unicode="&#xdc;" horiz-adv-x="726" 
d="M621 274q-1 -135 -66.5 -210t-204.5 -75q-135 0 -192.5 66.5t-55.5 197.5l4 439h88l-4 -451q-1 -90 39 -136t133 -46q51 0 84.5 15t54 42.5t29.5 65.5t9 84l3 426h82zM407 744v95h96v-95h-96zM239 744v95h95v-95h-95z" />
    <glyph glyph-name="Yacute" unicode="&#xdd;" horiz-adv-x="612" 
d="M348 323l-3 -323h-88l3 316l-254 353l80 39l167 -237q13 -18 22.5 -34t17.5 -27q8 -13 15 -24q8 14 18 29q8 13 19.5 29t23.5 33l169 231l72 -39zM306 735l-49 21l107 163l80 -39z" />
    <glyph glyph-name="Thorn" unicode="&#xde;" 
d="M546 384q0 -62 -21.5 -102.5t-56.5 -64.5t-79.5 -33.5t-91.5 -9.5h-96l-1 -174h-88l6 692h88l-2 -110q24 0 56.5 0.5t61.5 0.5q13 0 35 -0.5t47 -6t50 -17.5t45.5 -34t33.5 -56.5t13 -84.5zM457 384q0 45 -14.5 71.5t-36.5 40.5t-49.5 18t-52.5 4q-35 0 -65 -1t-35 -1
l-2 -277l86 -1q31 0 61 5t54 21t39 44.5t15 75.5z" />
    <glyph glyph-name="germandbls" unicode="&#xdf;" horiz-adv-x="562" 
d="M526 179q0 -56 -21 -92t-54 -56t-74.5 -27.5t-83.5 -7.5h-19t-18 1l7 60q32 0 63.5 2.5t57 14.5t41 35.5t15.5 64.5q0 27 -13 47.5t-32.5 39t-42.5 35.5t-42.5 37.5t-32.5 45t-13 57.5q0 31 14.5 53.5t32.5 43t32.5 43.5t14.5 56q0 32 -19 51t-51 19q-33 0 -54.5 -11.5
t-34.5 -31t-18.5 -44.5t-5.5 -52l-5 -563h-82l4 545q0 48 11 88t35 68.5t63.5 44.5t98.5 16q27 0 53 -7t46.5 -22t32.5 -38t12 -55q0 -40 -15.5 -65.5t-34.5 -45.5t-34.5 -39t-15.5 -46q0 -25 13.5 -44.5t33.5 -37.5t44 -35.5t44 -38.5t33.5 -47.5t13.5 -61.5z" />
    <glyph glyph-name="agrave" unicode="&#xe0;" horiz-adv-x="501" 
d="M499 25q-23 -15 -49 -25.5t-47 -10.5q-35 0 -54.5 16t-19.5 47v16q-29 -35 -63 -57t-82 -22q-66 0 -104 39t-38 106q0 53 29 85.5t72.5 50.5t93 25.5t90.5 11.5l2 63q1 35 -18 54.5t-54 19.5q-41 0 -76.5 -18.5t-66.5 -44.5l-34 49q46 34 93 56.5t110 22.5q60 0 93 -32.5
t31 -91.5l-7 -267v-21t3.5 -22.5t10.5 -18t20 -7.5q12 0 22 5t20 12zM326 253q-31 -2 -66.5 -6.5t-66 -16.5t-50.5 -34.5t-20 -60.5q0 -42 22.5 -64.5t63.5 -22.5q18 0 34 6.5t30 16.5t26 23t23 26zM275 577l-134 145l80 39l103 -163z" />
    <glyph glyph-name="aacute" unicode="&#xe1;" horiz-adv-x="501" 
d="M499 25q-23 -15 -49 -25.5t-47 -10.5q-35 0 -54.5 16t-19.5 47v16q-29 -35 -63 -57t-82 -22q-66 0 -104 39t-38 106q0 53 29 85.5t72.5 50.5t93 25.5t90.5 11.5l2 63q1 35 -18 54.5t-54 19.5q-41 0 -76.5 -18.5t-66.5 -44.5l-34 49q46 34 93 56.5t110 22.5q60 0 93 -32.5
t31 -91.5l-7 -267v-21t3.5 -22.5t10.5 -18t20 -7.5q12 0 22 5t20 12zM326 253q-31 -2 -66.5 -6.5t-66 -16.5t-50.5 -34.5t-20 -60.5q0 -42 22.5 -64.5t63.5 -22.5q18 0 34 6.5t30 16.5t26 23t23 26zM255 578l-49 21l107 163l80 -39z" />
    <glyph glyph-name="acircumflex" unicode="&#xe2;" horiz-adv-x="501" 
d="M499 25q-23 -15 -49 -25.5t-47 -10.5q-35 0 -54.5 16t-19.5 47v16q-29 -35 -63 -57t-82 -22q-66 0 -104 39t-38 106q0 53 29 85.5t72.5 50.5t93 25.5t90.5 11.5l2 63q1 35 -18 54.5t-54 19.5q-41 0 -76.5 -18.5t-66.5 -44.5l-34 49q46 34 93 56.5t110 22.5q60 0 93 -32.5
t31 -91.5l-7 -267v-21t3.5 -22.5t10.5 -18t20 -7.5q12 0 22 5t20 12zM326 253q-31 -2 -66.5 -6.5t-66 -16.5t-50.5 -34.5t-20 -60.5q0 -42 22.5 -64.5t63.5 -22.5q18 0 34 6.5t30 16.5t26 23t23 26zM327 578l-76 113l-83 -112l-48 15l95 155h76l86 -155z" />
    <glyph glyph-name="atilde" unicode="&#xe3;" horiz-adv-x="501" 
d="M499 25q-23 -15 -49 -25.5t-47 -10.5q-35 0 -54.5 16t-19.5 47v16q-29 -35 -63 -57t-82 -22q-66 0 -104 39t-38 106q0 53 29 85.5t72.5 50.5t93 25.5t90.5 11.5l2 63q1 35 -18 54.5t-54 19.5q-41 0 -76.5 -18.5t-66.5 -44.5l-34 49q46 34 93 56.5t110 22.5q60 0 93 -32.5
t31 -91.5l-7 -267v-21t3.5 -22.5t10.5 -18t20 -7.5q12 0 22 5t20 12zM326 253q-31 -2 -66.5 -6.5t-66 -16.5t-50.5 -34.5t-20 -60.5q0 -42 22.5 -64.5t63.5 -22.5q18 0 34 6.5t30 16.5t26 23t23 26zM418 683q-6 -20 -14.5 -38t-20.5 -32t-28.5 -22.5t-39.5 -8.5q-28 0 -46 7
t-32.5 16t-27 16t-29.5 7q-20 0 -34 -17t-17 -35l-49 12q5 19 13.5 37t21 32t29.5 22.5t39 8.5q28 0 47.5 -7t34.5 -16t28 -16t27 -7q22 0 33.5 15t18.5 38l46 -12v0z" />
    <glyph glyph-name="adieresis" unicode="&#xe4;" horiz-adv-x="501" 
d="M499 25q-23 -15 -49 -25.5t-47 -10.5q-35 0 -54.5 16t-19.5 47v16q-29 -35 -63 -57t-82 -22q-66 0 -104 39t-38 106q0 53 29 85.5t72.5 50.5t93 25.5t90.5 11.5l2 63q1 35 -18 54.5t-54 19.5q-41 0 -76.5 -18.5t-66.5 -44.5l-34 49q46 34 93 56.5t110 22.5q60 0 93 -32.5
t31 -91.5l-7 -267v-21t3.5 -22.5t10.5 -18t20 -7.5q12 0 22 5t20 12zM326 253q-31 -2 -66.5 -6.5t-66 -16.5t-50.5 -34.5t-20 -60.5q0 -42 22.5 -64.5t63.5 -22.5q18 0 34 6.5t30 16.5t26 23t23 26zM279 595v95h96v-95h-96zM111 595v95h95v-95h-95z" />
    <glyph glyph-name="aring" unicode="&#xe5;" horiz-adv-x="501" 
d="M499 25q-23 -15 -49 -25.5t-47 -10.5q-35 0 -54.5 16t-19.5 47v16q-29 -35 -63 -57t-82 -22q-66 0 -104 39t-38 106q0 53 29 85.5t72.5 50.5t93 25.5t90.5 11.5l2 63q1 35 -18 54.5t-54 19.5q-41 0 -76.5 -18.5t-66.5 -44.5l-34 49q46 34 93 56.5t110 22.5q60 0 93 -32.5
t31 -91.5l-7 -267v-21t3.5 -22.5t10.5 -18t20 -7.5q12 0 22 5t20 12zM326 253q-31 -2 -66.5 -6.5t-66 -16.5t-50.5 -34.5t-20 -60.5q0 -42 22.5 -64.5t63.5 -22.5q18 0 34 6.5t30 16.5t26 23t23 26zM360 660q0 -44 -29.5 -73t-77.5 -29q-46 0 -77 26.5t-31 75.5
q0 44 30.5 73t78.5 29t77 -26.5t29 -75.5zM310 660q0 31 -16 46t-41 15q-24 0 -41 -16t-17 -45q0 -31 16.5 -46t41.5 -15q26 0 41.5 17.5t15.5 43.5z" />
    <glyph glyph-name="ae" unicode="&#xe6;" horiz-adv-x="785" 
d="M398 249q-1 -40 6 -75.5t23.5 -62.5t44 -43t68.5 -16q42 0 72 17.5t59 46.5l44 -43q-39 -39 -84 -61.5t-100 -22.5q-70 0 -110.5 24.5t-62.5 67.5q-35 -45 -74.5 -68.5t-99.5 -23.5q-66 0 -104 39t-38 106q0 53 29 85.5t72.5 50.5t93 25.5t90.5 11.5q-1 0 -0.5 10t1.5 22
q1 14 1 31q1 35 -18 54.5t-54 19.5q-41 0 -76.5 -18.5t-66.5 -44.5l-34 49q46 34 93 56.5t110 22.5q92 0 107 -75q22 32 61.5 53.5t91.5 21.5q57 0 93.5 -19.5t58.5 -51t30.5 -72t8.5 -82.5v-35h-336zM659 309q1 28 -5.5 54t-21.5 45.5t-37.5 31.5t-53.5 12t-54.5 -13.5
t-41 -34t-28 -46t-15.5 -49.5h257zM326 253q-31 -2 -66.5 -6.5t-66 -16.5t-50.5 -34.5t-20 -60.5q0 -42 22.5 -64.5t63.5 -22.5q18 0 34.5 6.5t30.5 17t26.5 24t23.5 26.5z" />
    <glyph glyph-name="ccedilla" unicode="&#xe7;" horiz-adv-x="471" 
d="M410 409q-26 21 -56 30t-60 9q-39 0 -67.5 -19t-47 -49t-27.5 -68t-9 -76q0 -35 7.5 -68t25 -58.5t44.5 -41.5t66 -16q35 0 61.5 14t51.5 40l47 -42q-29 -31 -70.5 -53t-102.5 -22q-68 0 -110.5 25t-66 63t-32 82.5t-8.5 83.5q0 51 16.5 98.5t47.5 85t74 60t96 22.5
q39 0 78 -8t84 -44zM336 -132q0 -35 -16 -57.5t-41 -35.5t-54.5 -18.5t-56.5 -5.5l10 51q9 0 23 2t27.5 8t23.5 16.5t10 28.5q0 15 -7 24t-17.5 13.5t-21.5 5.5t-19 1h-10t-11 -1l7 57q8 1 14 1h15q13 0 34 -1.5t41 -10t34.5 -26.5t14.5 -52z" />
    <glyph glyph-name="egrave" unicode="&#xe8;" horiz-adv-x="527" 
d="M138 250q-1 -40 6 -76t24 -63t45 -43t69 -16q42 0 72 17.5t59 46.5l44 -43q-39 -39 -83 -61.5t-101 -22.5q-61 0 -102.5 20.5t-67 55.5t-36.5 82t-11 101q0 49 16 95.5t46 83.5t72 59.5t95 22.5q55 0 92 -19t59 -50.5t31 -72t9 -82.5v-35h-338zM399 309q1 28 -4.5 54
t-19.5 45.5t-37 31.5t-55 12t-56.5 -13t-41.5 -33t-27.5 -46t-15.5 -51h257zM291 578l-134 145l80 39l103 -163z" />
    <glyph glyph-name="eacute" unicode="&#xe9;" horiz-adv-x="527" 
d="M138 250q-1 -40 6 -76t24 -63t45 -43t69 -16q42 0 72 17.5t59 46.5l44 -43q-39 -39 -83 -61.5t-101 -22.5q-61 0 -102.5 20.5t-67 55.5t-36.5 82t-11 101q0 49 16 95.5t46 83.5t72 59.5t95 22.5q55 0 92 -19t59 -50.5t31 -72t9 -82.5v-35h-338zM399 309q1 28 -4.5 54
t-19.5 45.5t-37 31.5t-55 12t-56.5 -13t-41.5 -33t-27.5 -46t-15.5 -51h257zM272 578l-49 21l107 163l80 -39z" />
    <glyph glyph-name="ecircumflex" unicode="&#xea;" horiz-adv-x="527" 
d="M138 250q-1 -40 6 -76t24 -63t45 -43t69 -16q42 0 72 17.5t59 46.5l44 -43q-39 -39 -83 -61.5t-101 -22.5q-61 0 -102.5 20.5t-67 55.5t-36.5 82t-11 101q0 49 16 95.5t46 83.5t72 59.5t95 22.5q55 0 92 -19t59 -50.5t31 -72t9 -82.5v-35h-338zM399 309q1 28 -4.5 54
t-19.5 45.5t-37 31.5t-55 12t-56.5 -13t-41.5 -33t-27.5 -46t-15.5 -51h257zM352 577l-76 113l-83 -112l-48 15l95 155h76l86 -155z" />
    <glyph glyph-name="edieresis" unicode="&#xeb;" horiz-adv-x="527" 
d="M138 250q-1 -40 6 -76t24 -63t45 -43t69 -16q42 0 72 17.5t59 46.5l44 -43q-39 -39 -83 -61.5t-101 -22.5q-61 0 -102.5 20.5t-67 55.5t-36.5 82t-11 101q0 49 16 95.5t46 83.5t72 59.5t95 22.5q55 0 92 -19t59 -50.5t31 -72t9 -82.5v-35h-338zM399 309q1 28 -4.5 54
t-19.5 45.5t-37 31.5t-55 12t-56.5 -13t-41.5 -33t-27.5 -46t-15.5 -51h257zM320 595v95h96v-95h-96zM152 595v95h95v-95h-95z" />
    <glyph glyph-name="igrave" unicode="&#xec;" horiz-adv-x="267" 
d="M173 0h-83l4 498h83zM134 578l-134 145l80 39l103 -163z" />
    <glyph glyph-name="iacute" unicode="&#xed;" horiz-adv-x="267" 
d="M173 0h-83l4 498h83zM130 578l-49 21l107 163l80 -39z" />
    <glyph glyph-name="icircumflex" unicode="&#xee;" horiz-adv-x="267" 
d="M173 0h-83l4 498h83zM215 577l-76 113l-83 -112l-48 15l95 155h76l86 -155z" />
    <glyph glyph-name="idieresis" unicode="&#xef;" horiz-adv-x="267" 
d="M173 0h-83l4 498h83zM172 595v95h96v-95h-96zM4 595v95h95v-95h-95z" />
    <glyph glyph-name="eth" unicode="&#xf0;" horiz-adv-x="585" 
d="M529 283q0 -71 -17 -125.5t-48.5 -92t-76.5 -57t-100 -19.5q-59 0 -102.5 20t-72 55t-42.5 82.5t-14 102.5q0 51 17 98t48 82.5t75.5 57t99.5 21.5q78 0 128 -46q-30 97 -92 157l-127 -69l-25 47l108 58q-27 18 -58.5 32.5t-68.5 25.5l33 54q92 -25 160 -76l142 77
l26 -46l-125 -68q69 -70 100.5 -165.5t31.5 -205.5zM441 249q0 34 -7 70t-24 64.5t-45 47t-69 18.5t-69.5 -18.5t-47.5 -47t-27.5 -64.5t-8.5 -70q0 -35 7 -70.5t24 -64.5t44.5 -47t69.5 -18q40 0 69 18t47.5 47t27.5 64.5t9 70.5z" />
    <glyph glyph-name="ntilde" unicode="&#xf1;" horiz-adv-x="577" 
d="M486 0h-83l2 361q0 24 -8.5 39t-21.5 23.5t-28.5 11.5t-28.5 3q-24 0 -44 -8.5t-37.5 -22t-33 -30.5t-29.5 -34l-3 -343h-83l4 498h80q0 -14 -1 -28.5t-2 -27.5q-2 -15 -3 -29q14 19 32.5 36t40 30.5t45 21.5t47.5 8q76 0 117.5 -34.5t40.5 -110.5zM472 683
q-6 -20 -14.5 -38t-20.5 -32t-28.5 -22.5t-39.5 -8.5q-28 0 -46 7t-32.5 16t-27 16t-29.5 7q-20 0 -34 -17t-17 -35l-49 12q5 19 13.5 37t21 32t29.5 22.5t39 8.5q28 0 47.5 -7t34.5 -16t28 -16t27 -7q22 0 33.5 15t18.5 38l46 -12v0z" />
    <glyph glyph-name="ograve" unicode="&#xf2;" 
d="M528 249q0 -53 -17 -100t-48.5 -82.5t-76 -56.5t-99.5 -21q-59 0 -102.5 20t-72 55t-42.5 82.5t-14 102.5q0 52 17 99t48.5 83t76 57t99.5 21q59 0 102.5 -20t72 -55t42.5 -82.5t14 -102.5zM441 249q0 34 -7 69.5t-24 64.5t-45 47t-69 18t-69.5 -18t-47.5 -47
t-27.5 -64.5t-8.5 -69.5q0 -35 7 -70.5t24 -64t44.5 -46.5t69.5 -18q40 0 69 18t47.5 46.5t27.5 64t9 70.5zM300 579l-134 145l80 39l103 -163z" />
    <glyph glyph-name="oacute" unicode="&#xf3;" 
d="M528 249q0 -53 -17 -100t-48.5 -82.5t-76 -56.5t-99.5 -21q-59 0 -102.5 20t-72 55t-42.5 82.5t-14 102.5q0 52 17 99t48.5 83t76 57t99.5 21q59 0 102.5 -20t72 -55t42.5 -82.5t14 -102.5zM441 249q0 34 -7 69.5t-24 64.5t-45 47t-69 18t-69.5 -18t-47.5 -47
t-27.5 -64.5t-8.5 -69.5q0 -35 7 -70.5t24 -64t44.5 -46.5t69.5 -18q40 0 69 18t47.5 46.5t27.5 64t9 70.5zM297 579l-49 21l107 163l80 -39z" />
    <glyph glyph-name="ocircumflex" unicode="&#xf4;" 
d="M528 249q0 -53 -17 -100t-48.5 -82.5t-76 -56.5t-99.5 -21q-59 0 -102.5 20t-72 55t-42.5 82.5t-14 102.5q0 52 17 99t48.5 83t76 57t99.5 21q59 0 102.5 -20t72 -55t42.5 -82.5t14 -102.5zM441 249q0 34 -7 69.5t-24 64.5t-45 47t-69 18t-69.5 -18t-47.5 -47
t-27.5 -64.5t-8.5 -69.5q0 -35 7 -70.5t24 -64t44.5 -46.5t69.5 -18q40 0 69 18t47.5 46.5t27.5 64t9 70.5zM378 577l-76 113l-83 -112l-48 15l95 155h76l86 -155z" />
    <glyph glyph-name="otilde" unicode="&#xf5;" 
d="M528 249q0 -53 -17 -100t-48.5 -82.5t-76 -56.5t-99.5 -21q-59 0 -102.5 20t-72 55t-42.5 82.5t-14 102.5q0 52 17 99t48.5 83t76 57t99.5 21q59 0 102.5 -20t72 -55t42.5 -82.5t14 -102.5zM441 249q0 34 -7 69.5t-24 64.5t-45 47t-69 18t-69.5 -18t-47.5 -47
t-27.5 -64.5t-8.5 -69.5q0 -35 7 -70.5t24 -64t44.5 -46.5t69.5 -18q40 0 69 18t47.5 46.5t27.5 64t9 70.5zM469 687q-6 -20 -14.5 -38t-20.5 -32t-28.5 -22.5t-39.5 -8.5q-28 0 -46 7t-32.5 16t-27 16t-29.5 7q-20 0 -34 -17t-17 -35l-49 12q5 19 13.5 37t21 32t29.5 22.5
t39 8.5q28 0 47.5 -7t34.5 -16t28 -16t27 -7q22 0 33.5 15t18.5 38l46 -12v0z" />
    <glyph glyph-name="odieresis" unicode="&#xf6;" 
d="M528 249q0 -53 -17 -100t-48.5 -82.5t-76 -56.5t-99.5 -21q-59 0 -102.5 20t-72 55t-42.5 82.5t-14 102.5q0 52 17 99t48.5 83t76 57t99.5 21q59 0 102.5 -20t72 -55t42.5 -82.5t14 -102.5zM441 249q0 34 -7 69.5t-24 64.5t-45 47t-69 18t-69.5 -18t-47.5 -47
t-27.5 -64.5t-8.5 -69.5q0 -35 7 -70.5t24 -64t44.5 -46.5t69.5 -18q40 0 69 18t47.5 46.5t27.5 64t9 70.5zM334 595v95h96v-95h-96zM166 595v95h95v-95h-95z" />
    <glyph glyph-name="divide" unicode="&#xf7;" 
d="M248 402v96h92v-96h-92zM55 217v71h475v-71h-475zM245 0v96h92v-96h-92z" />
    <glyph glyph-name="oslash" unicode="&#xf8;" 
d="M471 434q29 -35 43 -82.5t14 -102.5q0 -53 -17 -100t-48.5 -82.5t-76 -56.5t-99.5 -21q-45 0 -81 11.5t-63 32.5l-63 -77l-36 24l68 84q-29 35 -42.5 82t-13.5 103q0 52 17 99t48.5 83t76 57t99.5 21q45 0 80 -11.5t62 -32.5l63 77l38 -24zM392 407q-17 19 -40.5 30
t-55.5 11q-41 0 -69.5 -18t-47.5 -47t-27.5 -64.5t-8.5 -69.5q0 -31 5 -61.5t18 -57.5zM441 249q0 30 -5.5 61t-18.5 58l-226 -277q17 -19 41 -30t56 -11q40 0 69 18t47.5 46.5t27.5 64t9 70.5z" />
    <glyph glyph-name="ugrave" unicode="&#xf9;" horiz-adv-x="577" 
d="M483 0h-80q0 14 0.5 28.5t2.5 27.5q1 15 3 29q-14 -19 -32.5 -36t-40 -30.5t-45 -21.5t-47.5 -8q-76 0 -117.5 34.5t-40.5 110.5l3 364h83l-2 -361q0 -24 8.5 -39t21.5 -23.5t28.5 -11.5t28.5 -3q24 0 44 8.5t38 22t33.5 30.5t29.5 34l2 343h83zM300 578l-134 145l80 39
l103 -163z" />
    <glyph glyph-name="uacute" unicode="&#xfa;" horiz-adv-x="577" 
d="M483 0h-80q0 14 0.5 28.5t2.5 27.5q1 15 3 29q-14 -19 -32.5 -36t-40 -30.5t-45 -21.5t-47.5 -8q-76 0 -117.5 34.5t-40.5 110.5l3 364h83l-2 -361q0 -24 8.5 -39t21.5 -23.5t28.5 -11.5t28.5 -3q24 0 44 8.5t38 22t33.5 30.5t29.5 34l2 343h83zM288 578l-49 21l107 163
l80 -39z" />
    <glyph glyph-name="ucircumflex" unicode="&#xfb;" horiz-adv-x="577" 
d="M483 0h-80q0 14 0.5 28.5t2.5 27.5q1 15 3 29q-14 -19 -32.5 -36t-40 -30.5t-45 -21.5t-47.5 -8q-76 0 -117.5 34.5t-40.5 110.5l3 364h83l-2 -361q0 -24 8.5 -39t21.5 -23.5t28.5 -11.5t28.5 -3q24 0 44 8.5t38 22t33.5 30.5t29.5 34l2 343h83zM365 568l-76 113
l-83 -112l-48 15l95 155h76l86 -155z" />
    <glyph glyph-name="udieresis" unicode="&#xfc;" horiz-adv-x="577" 
d="M483 0h-80q0 14 0.5 28.5t2.5 27.5q1 15 3 29q-14 -19 -32.5 -36t-40 -30.5t-45 -21.5t-47.5 -8q-76 0 -117.5 34.5t-40.5 110.5l3 364h83l-2 -361q0 -24 8.5 -39t21.5 -23.5t28.5 -11.5t28.5 -3q24 0 44 8.5t38 22t33.5 30.5t29.5 34l2 343h83zM324 595v95h96v-95h-96z
M156 595v95h95v-95h-95z" />
    <glyph glyph-name="yacute" unicode="&#xfd;" horiz-adv-x="487" 
d="M343 165q-17 -42 -34 -82.5t-33 -82.5q-11 -29 -21.5 -60.5t-22 -60.5t-24 -53.5t-25.5 -37.5q-17 -18 -35 -27.5t-37.5 -14t-42.5 -5t-50 0.5l6 59q30 -1 54 1t43 21q13 13 24.5 38t21 52t16.5 51t12 37l-177 486l80 21l117 -336q4 -11 8 -26.5t9 -29.5q4 -17 10 -34
q5 17 9 34q4 14 8.5 30t9.5 27l131 334l75 -20zM245 579l-49 21l107 163l80 -39z" />
    <glyph glyph-name="thorn" unicode="&#xfe;" horiz-adv-x="588" 
d="M532 260q0 -48 -14.5 -96.5t-44 -87.5t-73.5 -63t-102 -24q-49 0 -76.5 11.5t-52.5 34.5q1 -6 2 -13q1 -6 1.5 -14.5t0.5 -18.5l-2 -242h-83l8 1004h83l-2 -239l-6 -80q28 35 71.5 56t89.5 21q57 0 95 -20.5t61.5 -55t33.5 -79.5t10 -94zM445 265q0 32 -7 64.5t-22.5 59
t-40.5 43t-61 16.5q-45 0 -81.5 -28t-57.5 -65l-1 -241q20 -33 52.5 -48.5t66.5 -15.5q42 0 71 21.5t47 54t26 70t8 69.5z" />
    <glyph glyph-name="ydieresis" unicode="&#xff;" horiz-adv-x="487" 
d="M343 165q-17 -42 -34 -82.5t-33 -82.5q-11 -29 -21.5 -60.5t-22 -60.5t-24 -53.5t-25.5 -37.5q-17 -18 -35 -27.5t-37.5 -14t-42.5 -5t-50 0.5l6 59q30 -1 54 1t43 21q13 13 24.5 38t21 52t16.5 51t12 37l-177 486l80 21l117 -336q4 -11 8 -26.5t9 -29.5q4 -17 10 -34
q5 17 9 34q4 14 8.5 30t9.5 27l131 334l75 -20zM286 595v95h96v-95h-96zM118 595v95h95v-95h-95z" />
    <glyph glyph-name="dotlessi" unicode="&#x131;" horiz-adv-x="267" 
d="M173 0h-83l4 498h83z" />
    <glyph glyph-name="OE" unicode="&#x152;" horiz-adv-x="1085" 
d="M647 0l1 120q-41 -63 -106.5 -97t-143.5 -34q-72 0 -132 26t-103.5 72.5t-68 112t-24.5 145.5q0 78 27.5 143.5t74 113.5t108 74.5t129.5 26.5q78 0 141 -31t103 -92l-1 112h368v-73h-283l-2 -232h276v-73h-277l-1 -240h290v-74h-376zM643 343q0 60 -16 113t-46 92
t-74 62t-101 23q-51 0 -95.5 -20.5t-77.5 -58t-52 -90t-19 -117.5q0 -62 16.5 -114.5t47.5 -91t75 -60.5t99 -22q54 0 99 22.5t77 61t49.5 90t17.5 110.5z" />
    <glyph glyph-name="oe" unicode="&#x153;" horiz-adv-x="914" 
d="M522 250q-2 -36 4 -72t23 -64.5t45.5 -46t70.5 -17.5q43 0 75.5 19t61.5 49l44 -41q-40 -39 -86 -63.5t-109 -24.5q-40 0 -69.5 8.5t-51.5 23.5t-36 35.5t-23 44.5q-27 -55 -75.5 -83.5t-108.5 -28.5q-59 0 -102.5 20t-72 55t-42.5 82.5t-14 102.5q0 52 17 99t48.5 83
t76 57t99.5 21q69 0 117 -30.5t71 -85.5q10 24 29 45t43.5 37t53 25t57.5 9q53 0 90 -17.5t60.5 -49t34 -76.5t10.5 -100v-16h-341zM785 310q0 26 -6 51.5t-20 46t-37 33t-56 12.5q-28 0 -52 -13t-42.5 -33t-30.5 -46t-17 -51h261zM439 247q0 34 -6.5 70.5t-22.5 65.5
t-43.5 48t-70.5 19q-41 0 -69.5 -18.5t-47.5 -47.5t-27.5 -65t-8.5 -70q0 -35 7 -70.5t24 -64.5t44.5 -47.5t69.5 -18.5q41 0 69.5 18t46.5 47t26.5 64t8.5 70z" />
    <glyph glyph-name="Scaron" unicode="&#x160;" horiz-adv-x="512" 
d="M417 597q-6 4 -16 10.5t-26.5 12.5t-40 10.5t-54.5 4.5q-26 0 -49.5 -6.5t-41.5 -20t-28.5 -33t-10.5 -46.5q0 -40 22.5 -65t56.5 -44t73.5 -36.5t73.5 -42t56.5 -61.5t22.5 -94q0 -46 -17 -82.5t-46.5 -62t-70 -39t-86.5 -13.5q-42 0 -73.5 5.5t-55 14t-39.5 17.5
t-27 17l45 61q6 -4 17 -11.5t28.5 -15t41.5 -13t56 -5.5q23 0 47 6.5t44 20t33 35.5t13 53q0 42 -22.5 68.5t-56.5 46t-73 37t-73 42.5t-56.5 62t-22.5 96q0 44 18 77t47.5 55.5t67.5 33.5t79 11t71 -4.5t51.5 -11.5t37 -15.5t27.5 -16.5zM309 752h-76l-86 155l50 16
l76 -113l83 112l48 -15z" />
    <glyph glyph-name="scaron" unicode="&#x161;" horiz-adv-x="407" 
d="M330 421q-22 12 -45 19.5t-49 7.5q-18 0 -35.5 -3t-31.5 -11.5t-23 -23t-9 -37.5q0 -26 16.5 -41t42 -27t54.5 -23t54.5 -29t42 -45.5t16.5 -70.5q0 -38 -15.5 -66t-40.5 -46t-56 -27t-62 -9q-44 0 -80.5 10.5t-70.5 31.5l37 55q25 -16 49.5 -25.5t61.5 -9.5
q36 0 63.5 17.5t27.5 57.5q0 31 -16.5 49t-41.5 30.5t-54.5 22.5t-54.5 26t-41.5 41.5t-16.5 67.5q0 40 16.5 68t42.5 45.5t57.5 25t61.5 7.5q32 0 70 -9t65 -25zM257 577h-76l-86 155l50 16l76 -113l83 112l48 -15z" />
    <glyph glyph-name="Ydieresis" unicode="&#x178;" horiz-adv-x="612" 
d="M348 323l-3 -323h-88l3 316l-254 353l80 39l167 -237q13 -18 22.5 -34t17.5 -27q8 -13 15 -24q8 14 18 29q8 13 19.5 29t23.5 33l169 231l72 -39zM347 744v95h96v-95h-96zM179 744v95h95v-95h-95z" />
    <glyph glyph-name="Zcaron" unicode="&#x17d;" horiz-adv-x="556" 
d="M205 156q-9 -14 -20.5 -28.5t-21.5 -26.5q-11 -14 -23 -28h46q19 0 37.5 0.5t29.5 0.5h263v-74h-461l-25 47l326 494q11 17 22 31.5t19 25.5q10 13 19 24q-19 -1 -37 -2q-17 -1 -36 -1h-37h-252v73h449l25 -48zM317 752h-76l-86 155l50 16l76 -113l83 112l48 -15z" />
    <glyph glyph-name="zcaron" unicode="&#x17e;" horiz-adv-x="443" 
d="M172 119q-8 -10 -16 -19.5t-15 -17.5q-8 -10 -16 -18q14 0 27 1q11 1 23.5 1.5t22.5 0.5h206v-67h-351l-27 54l247 329q8 10 15 19t14 17q7 9 15 16q-14 -1 -27 -2q-11 -1 -23.5 -1.5t-22.5 -0.5h-197v67h342l28 -55zM260 577h-76l-86 155l50 16l76 -113l83 112l48 -15z
" />
    <glyph glyph-name="florin" unicode="&#x192;" 
d="M569 697h-11q-5 0 -10.5 0.5t-10.5 0.5q-32 0 -60 -14t-50.5 -38.5t-39 -57t-24.5 -69.5l-28 -132h125l-15 -69h-124l-70 -320q-13 -58 -37 -106t-58.5 -82.5t-79 -53.5t-99.5 -19h-23q-6 0 -12 1l15 64q6 -1 11 -1h21q31 0 59.5 14t51 38.5t39 57t24.5 69.5l73 338h-95
l16 69h94l24 114q12 58 36 106t58.5 82.5t79.5 53.5t100 19q5 0 11.5 -0.5t11.5 -0.5h12z" />
    <glyph glyph-name="circumflex" unicode="&#x2c6;" horiz-adv-x="267" 
d="M213 568l-76 113l-83 -112l-48 15l95 155h76l86 -155z" />
    <glyph glyph-name="caron" unicode="&#x2c7;" horiz-adv-x="267" 
d="M168 577h-76l-86 155l50 16l76 -113l83 112l48 -15z" />
    <glyph glyph-name="ring" unicode="&#x2da;" horiz-adv-x="267" 
d="M242 653q0 -44 -29.5 -73t-77.5 -29q-46 0 -77 26.5t-31 75.5q0 44 30.5 73t78.5 29t77 -26.5t29 -75.5zM192 653q0 31 -16 46t-41 15q-24 0 -41 -16t-17 -45q0 -31 16.5 -46t41.5 -15q26 0 41.5 17.5t15.5 43.5z" />
    <glyph glyph-name="tilde" unicode="&#x2dc;" horiz-adv-x="267" 
d="M304 680q-6 -20 -14.5 -38t-20.5 -32t-28.5 -22.5t-39.5 -8.5q-28 0 -46 7t-32.5 16t-27 16t-29.5 7q-20 0 -34 -17t-17 -35l-49 12q5 19 13.5 37t21 32t29.5 22.5t39 8.5q28 0 47.5 -7t34.5 -16t28 -16t27 -7q22 0 33.5 15t18.5 38l46 -12v0z" />
    <glyph glyph-name="endash" unicode="&#x2013;" horiz-adv-x="500" 
d="M0 223v62h500v-62h-500z" />
    <glyph glyph-name="emdash" unicode="&#x2014;" horiz-adv-x="1000" 
d="M130 223v62h740v-62h-740z" />
    <glyph glyph-name="quoteleft" unicode="&#x2018;" horiz-adv-x="292" 
d="M184 450h-100l52 242h50z" />
    <glyph glyph-name="quoteright" unicode="&#x2019;" horiz-adv-x="292" 
d="M156 450h-50l2 242h100z" />
    <glyph glyph-name="quotesinglbase" unicode="&#x201a;" horiz-adv-x="292" 
d="M146 -143h-50l2 242h100z" />
    <glyph glyph-name="quotedblleft" unicode="&#x201c;" horiz-adv-x="455" 
d="M347 450h-100l52 242h50zM184 450h-100l52 242h50z" />
    <glyph glyph-name="quotedblright" unicode="&#x201d;" horiz-adv-x="455" 
d="M319 450h-50l2 242h100zM156 450h-50l2 242h100z" />
    <glyph glyph-name="quotedblbase" unicode="&#x201e;" horiz-adv-x="455" 
d="M319 -143h-50l2 242h100zM156 -143h-50l2 242h100z" />
    <glyph glyph-name="dagger" unicode="&#x2020;" 
d="M332 432l-7 -432h-78l5 432h-193v66h195l3 194h81l-3 -194h190v-66h-193z" />
    <glyph glyph-name="daggerdbl" unicode="&#x2021;" 
d="M334 431l-1 -165h191v-67h-192l-3 -200h-79l3 202l-195 -1v65h197l1 166h-196v66h199l2 194h78l-3 -194h190v-66h-192z" />
    <glyph glyph-name="bullet" unicode="&#x2022;" horiz-adv-x="500" 
d="M423 346q0 -36 -13.5 -67.5t-37 -55t-55 -37t-67.5 -13.5t-67.5 13.5t-55 37t-37 55t-13.5 67.5t13.5 67.5t37 55t55 37t67.5 13.5t67.5 -13.5t55 -37t37 -55t13.5 -67.5z" />
    <glyph glyph-name="ellipsis" unicode="&#x2026;" horiz-adv-x="1000" 
d="M787 0v96h92v-96h-92zM454 0v96h92v-96h-92zM121 0v96h92v-96h-92z" />
    <glyph glyph-name="perthousand" unicode="&#x2030;" horiz-adv-x="1240" 
d="M1180 208q0 -35 -8.5 -73t-27 -69.5t-49 -52t-74.5 -20.5q-47 0 -78 19.5t-49 50.5t-25 69.5t-7 75.5q0 35 8 72.5t26.5 69t49 52t75.5 20.5q47 0 77.5 -19.5t48.5 -50.5t25.5 -69t7.5 -75zM817 208q0 -35 -8.5 -73t-27 -69.5t-49 -52t-74.5 -20.5q-47 0 -78 19.5
t-49 50.5t-25 69.5t-7 75.5q0 35 8 72.5t26.5 69t49 52t75.5 20.5q47 0 77.5 -19.5t48.5 -50.5t25.5 -69t7.5 -75zM238 -28l-46 18l445 729l48 -19zM378 486q0 -35 -8.5 -73t-27 -69.5t-49 -52t-74.5 -20.5q-47 0 -78 19.5t-49 50.5t-25 69.5t-7 75.5q0 35 8 72.5t26.5 69
t49 52t75.5 20.5q47 0 77.5 -19.5t48.5 -50.5t25.5 -69t7.5 -75zM1114 208q0 22 -3 51t-13 54.5t-28.5 43t-48.5 17.5t-48.5 -17.5t-28 -43t-13 -54.5t-3.5 -51q0 -23 3.5 -52t13 -55.5t28 -44.5t48.5 -18t48.5 18t28.5 44.5t13 55.5t3 52zM751 208q0 22 -3 51t-13 54.5
t-28.5 43t-48.5 17.5t-48.5 -17.5t-28 -43t-13 -54.5t-3.5 -51q0 -23 3.5 -52t13 -55.5t28 -44.5t48.5 -18t48.5 18t28.5 44.5t13 55.5t3 52zM312 486q0 22 -3 51t-13 54.5t-28.5 43t-48.5 17.5t-48.5 -17.5t-28 -43t-13 -54.5t-3.5 -51q0 -23 3.5 -52t13 -55.5t28 -44.5
t48.5 -18t48.5 18t28.5 44.5t13 55.5t3 52z" />
    <glyph glyph-name="guilsinglleft" unicode="&#x2039;" horiz-adv-x="292" 
d="M121 263l109 -162l-39 -23l-154 185l164 195l39 -23z" />
    <glyph glyph-name="guilsinglright" unicode="&#x203a;" horiz-adv-x="292" 
d="M91 78l-39 23l119 172l-109 162l39 23l154 -185z" />
    <glyph glyph-name="Euro" unicode="&#x20ac;" horiz-adv-x="587" 
d="M549 612q-27 8 -52 14t-67 6q-43 0 -79 -16t-64 -42.5t-47.5 -61t-28.5 -71.5h221v-56h-232q-2 -11 -2 -18.5v-18.5v-19.5t2 -19.5h231v-56h-225q2 -27 18.5 -60.5t44 -63t65.5 -49.5t84 -20q40 0 69 8.5t60 24.5l32 -62q-25 -12 -44 -20.5t-37.5 -13t-37.5 -6.5t-44 -2
q-58 0 -108.5 18.5t-90 52.5t-67.5 83t-40 110h-80v56h76q-1 10 -1.5 18t-0.5 18v20t2 20h-75v56h88q13 59 43 107.5t71 83.5t91.5 54t103.5 19q24 0 43.5 -1.5t37 -5t35.5 -8.5t39 -12z" />
    <glyph glyph-name="trademark" unicode="&#x2122;" horiz-adv-x="786" 
d="M661 340l-33 205q-2 16 -6 42t-6 47q-3 -16 -9.5 -41t-14.5 -49q-20 -56 -35 -100q-6 -19 -12.5 -37t-11 -32t-7 -22.5l-2.5 -8.5h-61l-62 200q-7 21 -13 46.5t-9 43.5q-2 -17 -4.5 -38.5t-8.5 -50.5l-42 -205l-52 8l76 344h64l62 -202q11 -37 16.5 -58.5t7.5 -32.5
q1 7 3.5 19t6 25t7 25.5t6.5 20.5l71 203h65l59 -343zM179 650l-2 -306h-54l2 306h-107v42h268v-42h-107z" />
    <glyph glyph-name="glyph224" horiz-adv-x="267" 
d="M168 752h-76l-86 155l50 16l76 -113l83 112l48 -15z" />
    <glyph glyph-name="glyph225" horiz-adv-x="267" 
d="M213 737l-76 113l-83 -112l-48 15l95 155h76l86 -155z" />
    <glyph glyph-name="glyph226" horiz-adv-x="267" 
d="M121 736l-49 21l107 163l80 -39z" />
    <glyph glyph-name="glyph227" horiz-adv-x="267" 
d="M144 736l-134 145l80 39l103 -163z" />
    <glyph glyph-name="glyph228" horiz-adv-x="267" 
d="M304 841q-6 -20 -14.5 -38t-20.5 -32t-28.5 -22.5t-39.5 -8.5q-28 0 -46 7t-32.5 16t-27 16t-29.5 7q-20 0 -34 -17t-17 -35l-49 12q5 19 13.5 37t21 32t29.5 22.5t39 8.5q28 0 47.5 -7t34.5 -16t28 -16t27 -7q22 0 33.5 15t18.5 38l46 -12v0z" />
    <glyph glyph-name="glyph229" horiz-adv-x="267" 
d="M170 744v95h96v-95h-96zM2 744v95h95v-95h-95z" />
    <glyph glyph-name="glyph230" horiz-adv-x="267" 
d="M242 830q0 -44 -29.5 -73t-77.5 -29q-46 0 -77 26.5t-31 75.5q0 44 30.5 73t78.5 29t77 -26.5t29 -75.5zM192 830q0 31 -16 46t-41 15q-24 0 -41 -16t-17 -45q0 -31 16.5 -46t41.5 -15q26 0 41.5 17.5t15.5 43.5z" />
    </font>
</defs>
</svg>
